  0
SECTION
  2
HEADER
  9
$ACADVER
  1
AC1009
999
I-DEAS 11 NX Not Encoded
  9
$EXTMIN
 10
0.0
 20
0.0
  9
$EXTMAX
 10
4.2E+002
 20
2.97E+002
  9
$TEXTSIZE
 40
1.25E-001
  9
$LTSCALE
 40
1.0
  9
$CLAYER
  8
2D_SICHTBARE_KANTEN
  9
$CECOLOR
 62
40
  9
$DIMASZ
 40
1.25E-001
  9
$DIMEXO
 40
6.25E-002
  9
$DIMDLI
 40
2.5E-001
  9
$DIMEXE
 40
1.25E-001
  9
$DIMTP
 40
5.0E-003
  9
$DIMTM
 40
-5.0E-003
  9
$DIMTXT
 40
3.0
  9
$DIMLIM
 70
0
  9
$DIMTIH
 70
1
  9
$DIMTOH
 70
1
  9
$DIMSE1
 70
0
  9
$DIMSE2
 70
0
  9
$DIMTAD
 70
0
  9
$DIMASO
 70
1
  9
$DIMALT
 70
0
  9
$DIMALTD
 70
0
  9
$DIMTOFL
 70
1
  9
$DIMTIX
 70
0
  9
$DIMSAH
 70
0
  9
$DIMTFAC
 40
1.0
  9
$DIMGAP
 40
6.25E-002
  9
$LUNITS
 70
2
  9
$LUPREC
 70
3
  9
$FILLETRAD
 40
2.0
  9
$AUNITS
 70
0
  9
$AUPREC
 70
1
  9
$CHAMFERA
 40
1.0E+001
  9
$CHAMFERB
 40
1.0E+001
  9
$ANGBASE
 50
0.0
  9
$ANGDIR
 70
0
  9
$PEXTMIN
 10
0.0
 20
0.0
 30
0.0
  9
$PEXTMAX
 10
4.2E+002
 20
2.97E+002
 30
0.0
  9
$PLIMMIN
 10
0.0
 20
0.0
  9
$PLIMMAX
 10
4.2E+002
 20
2.97E+002
  9
$PDMODE
 70
2
  9
$PDSIZE
 40
-1.0E-002
  9
$SPLINETYPE
 70
6
  9
$TILEMODE
 70
1
  0
ENDSEC
  0
SECTION
  2
TABLES
  0
TABLE
  2
VPORT
 70
2
  0
VPORT
  2
*Active
 70
0
 10
0.0
 20
0.0
 11
4.2E+002
 21
2.97E+002
 12
2.1E+002
 22
1.485E+002
 13
0.0
 23
0.0
 14
1.0
 24
1.0
 15
0.0
 25
0.0
 16
0.0
 26
0.0
 36
1.0
 17
0.0
 27
0.0
 37
0.0
 40
2.97E+002
 41
1.4141414
 42
5.0E+001
 43
0.0
 44
0.0
 50
0.0
 51
0.0
 71
0
 72
100
 73
1
 74
3
 75
0
 76
0
 77
0
 78
0
  0
ENDTAB
  0
TABLE
  2
LTYPE
 70
7
  0
LTYPE
  2
HIDDENNEW0
  3
_ 
 70
64
 72
65
 73
3
 40
4.5
 49
1.5
 49
-1.5
 49
1.5
  0
LTYPE
  2
HIDDENNEW1
  3
_ 
 70
64
 72
65
 73
3
 40
4.5
 49
1.5
 49
-1.5
 49
1.5
  0
LTYPE
  2
HIDDEN
  3
_ 
 70
64
 72
65
 73
3
 40
4.5
 49
1.5
 49
-1.5
 49
1.5
  0
LTYPE
  2
CENTERLINE
  3
_ 
 70
64
 72
65
 73
5
 40
3.0E+001
 49
1.2E+001
 49
-1.5
 49
3.0
 49
-1.5
 49
1.2E+001
  0
LTYPE
  2
PHANTOM
  3
_ 
 70
64
 72
65
 73
7
 40
2.95E+001
 49
9.5
 49
-1.5
 49
3.0
 49
-1.5
 49
3.0
 49
-1.5
 49
9.5
  0
LTYPE
  2
SHORT_DASH
  3
_ 
 70
64
 72
65
 73
3
 40
3.0
 49
7.5E-001
 49
-1.5
 49
7.5E-001
  0
LTYPE
  2
LONG_DASH
  3
_ 
 70
64
 72
65
 73
3
 40
9.0
 49
2.25
 49
-4.5
 49
2.25
  0
ENDTAB
  0
TABLE
  2
LAYER
 70
258
  0
LAYER
  2
MED-1
 70
0
 62
3
  6
HIDDENNEW0
  0
LAYER
  2
2
 70
0
 62
7
  6
CONTINUOUS
  0
LAYER
  2
3
 70
0
 62
7
  6
CONTINUOUS
  0
LAYER
  2
MED-4
 70
0
 62
2
  6
HIDDENNEW0
  0
LAYER
  2
5
 70
0
 62
7
  6
CONTINUOUS
  0
LAYER
  2
MED-6
 70
0
 62
6
  6
HIDDENNEW0
  0
LAYER
  2
7
 70
0
 62
7
  6
CONTINUOUS
  0
LAYER
  2
8
 70
0
 62
7
  6
CONTINUOUS
  0
LAYER
  2
9
 70
0
 62
7
  6
CONTINUOUS
  0
LAYER
  2
10
 70
0
 62
7
  6
CONTINUOUS
  0
LAYER
  2
MED-11
 70
0
 62
70
  6
HIDDENNEW0
  0
LAYER
  2
12
 70
0
 62
7
  6
CONTINUOUS
  0
LAYER
  2
13
 70
0
 62
7
  6
CONTINUOUS
  0
LAYER
  2
14
 70
0
 62
7
  6
CONTINUOUS
  0
LAYER
  2
15
 70
0
 62
7
  6
CONTINUOUS
  0
LAYER
  2
16
 70
0
 62
7
  6
CONTINUOUS
  0
LAYER
  2
17
 70
0
 62
7
  6
CONTINUOUS
  0
LAYER
  2
18
 70
0
 62
7
  6
CONTINUOUS
  0
LAYER
  2
19
 70
0
 62
7
  6
CONTINUOUS
  0
LAYER
  2
20
 70
0
 62
7
  6
CONTINUOUS
  0
LAYER
  2
21
 70
0
 62
7
  6
CONTINUOUS
  0
LAYER
  2
22
 70
0
 62
7
  6
CONTINUOUS
  0
LAYER
  2
23
 70
0
 62
7
  6
CONTINUOUS
  0
LAYER
  2
24
 70
0
 62
7
  6
CONTINUOUS
  0
LAYER
  2
25
 70
0
 62
7
  6
CONTINUOUS
  0
LAYER
  2
26
 70
0
 62
7
  6
CONTINUOUS
  0
LAYER
  2
27
 70
0
 62
7
  6
CONTINUOUS
  0
LAYER
  2
28
 70
0
 62
7
  6
CONTINUOUS
  0
LAYER
  2
29
 70
0
 62
7
  6
CONTINUOUS
  0
LAYER
  2
30
 70
0
 62
7
  6
CONTINUOUS
  0
LAYER
  2
31
 70
0
 62
7
  6
CONTINUOUS
  0
LAYER
  2
32
 70
0
 62
7
  6
CONTINUOUS
  0
LAYER
  2
33
 70
0
 62
7
  6
CONTINUOUS
  0
LAYER
  2
34
 70
0
 62
7
  6
CONTINUOUS
  0
LAYER
  2
35
 70
0
 62
7
  6
CONTINUOUS
  0
LAYER
  2
36
 70
0
 62
7
  6
CONTINUOUS
  0
LAYER
  2
37
 70
0
 62
7
  6
CONTINUOUS
  0
LAYER
  2
38
 70
0
 62
7
  6
CONTINUOUS
  0
LAYER
  2
39
 70
0
 62
7
  6
CONTINUOUS
  0
LAYER
  2
40
 70
0
 62
7
  6
CONTINUOUS
  0
LAYER
  2
41
 70
0
 62
7
  6
CONTINUOUS
  0
LAYER
  2
42
 70
0
 62
7
  6
CONTINUOUS
  0
LAYER
  2
43
 70
0
 62
7
  6
CONTINUOUS
  0
LAYER
  2
44
 70
0
 62
7
  6
CONTINUOUS
  0
LAYER
  2
45
 70
0
 62
7
  6
CONTINUOUS
  0
LAYER
  2
46
 70
0
 62
7
  6
CONTINUOUS
  0
LAYER
  2
47
 70
0
 62
7
  6
CONTINUOUS
  0
LAYER
  2
48
 70
0
 62
7
  6
CONTINUOUS
  0
LAYER
  2
49
 70
0
 62
7
  6
CONTINUOUS
  0
LAYER
  2
50
 70
0
 62
7
  6
CONTINUOUS
  0
LAYER
  2
51
 70
0
 62
7
  6
CONTINUOUS
  0
LAYER
  2
52
 70
0
 62
7
  6
CONTINUOUS
  0
LAYER
  2
53
 70
0
 62
7
  6
CONTINUOUS
  0
LAYER
  2
54
 70
0
 62
7
  6
CONTINUOUS
  0
LAYER
  2
55
 70
0
 62
7
  6
CONTINUOUS
  0
LAYER
  2
56
 70
0
 62
7
  6
CONTINUOUS
  0
LAYER
  2
57
 70
0
 62
7
  6
CONTINUOUS
  0
LAYER
  2
58
 70
0
 62
7
  6
CONTINUOUS
  0
LAYER
  2
59
 70
0
 62
7
  6
CONTINUOUS
  0
LAYER
  2
60
 70
0
 62
7
  6
CONTINUOUS
  0
LAYER
  2
61
 70
0
 62
7
  6
CONTINUOUS
  0
LAYER
  2
62
 70
0
 62
7
  6
CONTINUOUS
  0
LAYER
  2
63
 70
0
 62
7
  6
CONTINUOUS
  0
LAYER
  2
64
 70
0
 62
7
  6
CONTINUOUS
  0
LAYER
  2
65
 70
0
 62
7
  6
CONTINUOUS
  0
LAYER
  2
66
 70
0
 62
7
  6
CONTINUOUS
  0
LAYER
  2
67
 70
0
 62
7
  6
CONTINUOUS
  0
LAYER
  2
68
 70
0
 62
7
  6
CONTINUOUS
  0
LAYER
  2
69
 70
0
 62
7
  6
CONTINUOUS
  0
LAYER
  2
70
 70
0
 62
7
  6
CONTINUOUS
  0
LAYER
  2
71
 70
0
 62
7
  6
CONTINUOUS
  0
LAYER
  2
72
 70
0
 62
7
  6
CONTINUOUS
  0
LAYER
  2
73
 70
0
 62
7
  6
CONTINUOUS
  0
LAYER
  2
74
 70
0
 62
7
  6
CONTINUOUS
  0
LAYER
  2
75
 70
0
 62
7
  6
CONTINUOUS
  0
LAYER
  2
76
 70
0
 62
7
  6
CONTINUOUS
  0
LAYER
  2
77
 70
0
 62
7
  6
CONTINUOUS
  0
LAYER
  2
78
 70
0
 62
7
  6
CONTINUOUS
  0
LAYER
  2
79
 70
0
 62
7
  6
CONTINUOUS
  0
LAYER
  2
80
 70
0
 62
7
  6
CONTINUOUS
  0
LAYER
  2
81
 70
0
 62
7
  6
CONTINUOUS
  0
LAYER
  2
82
 70
0
 62
7
  6
CONTINUOUS
  0
LAYER
  2
83
 70
0
 62
7
  6
CONTINUOUS
  0
LAYER
  2
84
 70
0
 62
7
  6
CONTINUOUS
  0
LAYER
  2
85
 70
0
 62
7
  6
CONTINUOUS
  0
LAYER
  2
86
 70
0
 62
7
  6
CONTINUOUS
  0
LAYER
  2
87
 70
0
 62
7
  6
CONTINUOUS
  0
LAYER
  2
88
 70
0
 62
7
  6
CONTINUOUS
  0
LAYER
  2
89
 70
0
 62
7
  6
CONTINUOUS
  0
LAYER
  2
90
 70
0
 62
7
  6
CONTINUOUS
  0
LAYER
  2
91
 70
0
 62
7
  6
CONTINUOUS
  0
LAYER
  2
92
 70
0
 62
7
  6
CONTINUOUS
  0
LAYER
  2
93
 70
0
 62
7
  6
CONTINUOUS
  0
LAYER
  2
94
 70
0
 62
7
  6
CONTINUOUS
  0
LAYER
  2
95
 70
0
 62
7
  6
CONTINUOUS
  0
LAYER
  2
96
 70
0
 62
7
  6
CONTINUOUS
  0
LAYER
  2
97
 70
0
 62
7
  6
CONTINUOUS
  0
LAYER
  2
98
 70
0
 62
7
  6
CONTINUOUS
  0
LAYER
  2
99
 70
0
 62
7
  6
CONTINUOUS
  0
LAYER
  2
2D_BEMASSUNG
 70
0
 62
1
  6
PHANTOM
  0
LAYER
  2
2D_SCHNITTVERLAUF_ETC
 70
0
 62
40
  6
CONTINUOUS
  0
LAYER
  2
102
 70
0
 62
7
  6
CONTINUOUS
  0
LAYER
  2
2D_TEXT
 70
0
 62
1
  6
CONTINUOUS
  0
LAYER
  2
2D_SICHTBARE_KANTEN
 70
0
 62
1
  6
HIDDENNEW0
  0
LAYER
  2
2D_VERDECKTE_KANTEN
 70
0
 62
1
  6
CONTINUOUS
  0
LAYER
  2
2D_MITTELLINIEN
 70
0
 62
1
  6
PHANTOM
  0
LAYER
  2
2D_REFERENZ-GEOMETRIE
 70
0
 62
1
  6
CONTINUOUS
  0
LAYER
  2
2D_SCHRAFFUR
 70
0
 62
1
  6
CONTINUOUS
  0
LAYER
  2
2D_SYMBOLE
 70
0
 62
1
  6
CONTINUOUS
  0
LAYER
  2
110
 70
0
 62
7
  6
CONTINUOUS
  0
LAYER
  2
111
 70
0
 62
7
  6
CONTINUOUS
  0
LAYER
  2
112
 70
0
 62
7
  6
CONTINUOUS
  0
LAYER
  2
113
 70
0
 62
7
  6
CONTINUOUS
  0
LAYER
  2
2D_TANGENT__KANTEN
 70
0
 62
150
  6
HIDDENNEW0
  0
LAYER
  2
115
 70
0
 62
7
  6
CONTINUOUS
  0
LAYER
  2
116
 70
0
 62
7
  6
CONTINUOUS
  0
LAYER
  2
117
 70
0
 62
7
  6
CONTINUOUS
  0
LAYER
  2
118
 70
0
 62
7
  6
CONTINUOUS
  0
LAYER
  2
119
 70
0
 62
7
  6
CONTINUOUS
  0
LAYER
  2
120
 70
0
 62
7
  6
CONTINUOUS
  0
LAYER
  2
121
 70
0
 62
7
  6
CONTINUOUS
  0
LAYER
  2
122
 70
0
 62
7
  6
CONTINUOUS
  0
LAYER
  2
123
 70
0
 62
7
  6
CONTINUOUS
  0
LAYER
  2
124
 70
0
 62
7
  6
CONTINUOUS
  0
LAYER
  2
125
 70
0
 62
7
  6
CONTINUOUS
  0
LAYER
  2
126
 70
0
 62
7
  6
CONTINUOUS
  0
LAYER
  2
127
 70
0
 62
7
  6
CONTINUOUS
  0
LAYER
  2
128
 70
0
 62
7
  6
CONTINUOUS
  0
LAYER
  2
129
 70
0
 62
7
  6
CONTINUOUS
  0
LAYER
  2
130
 70
0
 62
7
  6
CONTINUOUS
  0
LAYER
  2
131
 70
0
 62
7
  6
CONTINUOUS
  0
LAYER
  2
132
 70
0
 62
7
  6
CONTINUOUS
  0
LAYER
  2
133
 70
0
 62
7
  6
CONTINUOUS
  0
LAYER
  2
134
 70
0
 62
7
  6
CONTINUOUS
  0
LAYER
  2
135
 70
0
 62
7
  6
CONTINUOUS
  0
LAYER
  2
136
 70
0
 62
7
  6
CONTINUOUS
  0
LAYER
  2
137
 70
0
 62
7
  6
CONTINUOUS
  0
LAYER
  2
138
 70
0
 62
7
  6
CONTINUOUS
  0
LAYER
  2
139
 70
0
 62
7
  6
CONTINUOUS
  0
LAYER
  2
140
 70
0
 62
7
  6
CONTINUOUS
  0
LAYER
  2
141
 70
0
 62
7
  6
CONTINUOUS
  0
LAYER
  2
142
 70
0
 62
7
  6
CONTINUOUS
  0
LAYER
  2
143
 70
0
 62
7
  6
CONTINUOUS
  0
LAYER
  2
144
 70
0
 62
7
  6
CONTINUOUS
  0
LAYER
  2
145
 70
0
 62
7
  6
CONTINUOUS
  0
LAYER
  2
146
 70
0
 62
7
  6
CONTINUOUS
  0
LAYER
  2
147
 70
0
 62
7
  6
CONTINUOUS
  0
LAYER
  2
148
 70
0
 62
7
  6
CONTINUOUS
  0
LAYER
  2
149
 70
0
 62
7
  6
CONTINUOUS
  0
LAYER
  2
150
 70
0
 62
7
  6
CONTINUOUS
  0
LAYER
  2
151
 70
0
 62
7
  6
CONTINUOUS
  0
LAYER
  2
152
 70
0
 62
7
  6
CONTINUOUS
  0
LAYER
  2
153
 70
0
 62
7
  6
CONTINUOUS
  0
LAYER
  2
154
 70
0
 62
7
  6
CONTINUOUS
  0
LAYER
  2
155
 70
0
 62
7
  6
CONTINUOUS
  0
LAYER
  2
156
 70
0
 62
7
  6
CONTINUOUS
  0
LAYER
  2
157
 70
0
 62
7
  6
CONTINUOUS
  0
LAYER
  2
158
 70
0
 62
7
  6
CONTINUOUS
  0
LAYER
  2
159
 70
0
 62
7
  6
CONTINUOUS
  0
LAYER
  2
160
 70
0
 62
7
  6
CONTINUOUS
  0
LAYER
  2
161
 70
0
 62
7
  6
CONTINUOUS
  0
LAYER
  2
162
 70
0
 62
7
  6
CONTINUOUS
  0
LAYER
  2
163
 70
0
 62
7
  6
CONTINUOUS
  0
LAYER
  2
164
 70
0
 62
7
  6
CONTINUOUS
  0
LAYER
  2
165
 70
0
 62
7
  6
CONTINUOUS
  0
LAYER
  2
166
 70
0
 62
7
  6
CONTINUOUS
  0
LAYER
  2
167
 70
0
 62
7
  6
CONTINUOUS
  0
LAYER
  2
168
 70
0
 62
7
  6
CONTINUOUS
  0
LAYER
  2
169
 70
0
 62
7
  6
CONTINUOUS
  0
LAYER
  2
170
 70
0
 62
7
  6
CONTINUOUS
  0
LAYER
  2
171
 70
0
 62
7
  6
CONTINUOUS
  0
LAYER
  2
172
 70
0
 62
7
  6
CONTINUOUS
  0
LAYER
  2
173
 70
0
 62
7
  6
CONTINUOUS
  0
LAYER
  2
174
 70
0
 62
7
  6
CONTINUOUS
  0
LAYER
  2
175
 70
0
 62
7
  6
CONTINUOUS
  0
LAYER
  2
176
 70
0
 62
7
  6
CONTINUOUS
  0
LAYER
  2
177
 70
0
 62
7
  6
CONTINUOUS
  0
LAYER
  2
178
 70
0
 62
7
  6
CONTINUOUS
  0
LAYER
  2
179
 70
0
 62
7
  6
CONTINUOUS
  0
LAYER
  2
180
 70
0
 62
7
  6
CONTINUOUS
  0
LAYER
  2
181
 70
0
 62
7
  6
CONTINUOUS
  0
LAYER
  2
182
 70
0
 62
7
  6
CONTINUOUS
  0
LAYER
  2
183
 70
0
 62
7
  6
CONTINUOUS
  0
LAYER
  2
184
 70
0
 62
7
  6
CONTINUOUS
  0
LAYER
  2
185
 70
0
 62
7
  6
CONTINUOUS
  0
LAYER
  2
186
 70
0
 62
7
  6
CONTINUOUS
  0
LAYER
  2
187
 70
0
 62
7
  6
CONTINUOUS
  0
LAYER
  2
188
 70
0
 62
7
  6
CONTINUOUS
  0
LAYER
  2
189
 70
0
 62
7
  6
CONTINUOUS
  0
LAYER
  2
190
 70
0
 62
7
  6
CONTINUOUS
  0
LAYER
  2
191
 70
0
 62
7
  6
CONTINUOUS
  0
LAYER
  2
192
 70
0
 62
7
  6
CONTINUOUS
  0
LAYER
  2
193
 70
0
 62
7
  6
CONTINUOUS
  0
LAYER
  2
194
 70
0
 62
7
  6
CONTINUOUS
  0
LAYER
  2
195
 70
0
 62
7
  6
CONTINUOUS
  0
LAYER
  2
196
 70
0
 62
7
  6
CONTINUOUS
  0
LAYER
  2
197
 70
0
 62
7
  6
CONTINUOUS
  0
LAYER
  2
198
 70
0
 62
7
  6
CONTINUOUS
  0
LAYER
  2
199
 70
0
 62
7
  6
CONTINUOUS
  0
LAYER
  2
3D_BEMASSUNG
 70
0
 62
4
  6
CONTINUOUS
  0
LAYER
  2
3D_REF__BEMASSUNG
 70
0
 62
1
  6
CONTINUOUS
  0
LAYER
  2
3D_OFFPLANE_BEMASSUNG
 70
0
 62
4
  6
CONTINUOUS
  0
LAYER
  2
3D_TEXT
 70
0
 62
1
  6
CONTINUOUS
  0
LAYER
  2
3D_SICHTBARE_KANTEN
 70
0
 62
40
  6
HIDDENNEW0
  0
LAYER
  2
Drafting_Hidden_Entities
 70
1
 62
7
  6
CONTINUOUS
  0
ENDTAB
  0
TABLE
  2
STYLE
 70
1
  0
STYLE
  2
STANDARD
 70
64
 40
0.0
 41
1.0
 50
0.0
 71
0
 42
1.0
  3
monotxt.shx
  4

  0
ENDTAB
  0
TABLE
  2
VIEW
 70
0
  0
ENDTAB
  0
TABLE
  2
DIMSTYLE
 70
2
  0
DIMSTYLE
  2
DSTYLE1
 70
0
  3

  4

  5

  6

  7

 40
1.0
 41
8.0
 42
0.0
 43
3.8E-001
 44
3.0
 45
1.0E-003
 46
0.0
 47
1.0E-001
 48
1.0E-001
 71
0
 72
0
 73
0
 74
0
 75
0
 76
0
 77
1
 78
11
140
7.0
141
9.0E-002
142
0.0
143
3.9370079E-002
144
1.0
145
0.0
146
1.0
147
3.0
170
0
171
2
172
0
173
0
174
0
175
0
176
0
177
0
178
0
  0
DIMSTYLE
  2
DSTYLE2
 70
0
  3

  4

  5

  6

  7

 40
1.0
 41
4.0
 42
0.0
 43
3.8E-001
 44
1.5
 45
1.0E-003
 46
0.0
 47
1.0E-001
 48
1.0E-001
 71
0
 72
0
 73
0
 74
0
 75
0
 76
0
 77
1
 78
11
140
7.0
141
9.0E-002
142
0.0
143
3.9370079E-002
144
2.0
145
0.0
146
1.0
147
1.5
170
0
171
2
172
0
173
0
174
0
175
0
176
0
177
0
178
0
  0
ENDTAB
  0
ENDSEC
  0
SECTION
  2
BLOCKS
  0
BLOCK
  2
_AH12
  3
_AH
 10
0.0
 20
0.0
 70
64
  0
LINE
  8
0
  6
CONTINUOUS
 62
0
 10
0.0
 20
0.0
 11
1.0
 21
0.0
  0
LINE
  8
0
  6
CONTINUOUS
 62
0
 10
0.0
 20
0.0
 11
-1.0
 21
0.0
  0
ENDBLK
  0
BLOCK
  2
_AH13
  3
_AH
 10
0.0
 20
0.0
 70
64
  0
SOLID
  8
0
  6
CONTINUOUS
 62
0
 10
0.0
 20
0.0
 11
-1.0
 21
1.66667E-001
 12
-1.0
 22
-1.66667E-001
 13
0.0
 23
0.0
  0
ENDBLK
  0
BLOCK
  2
_AH14
  3
_AH
 10
0.0
 20
0.0
 70
64
  0
ENDBLK
  0
BLOCK
  2
_AH15
  3
_AH
 10
0.0
 20
0.0
 70
64
  0
CIRCLE
  8
0
  6
CONTINUOUS
 62
0
 10
0.0
 20
0.0
 40
1.66667E-001
  0
LINE
  8
0
  6
CONTINUOUS
 62
0
 10
0.0
 20
0.0
 11
-1.0
 21
0.0
  0
ENDBLK
  0
BLOCK
  2
_AH16
  3
_AH
 10
0.0
 20
0.0
 70
64
  0
POLYLINE
  8
0
  6
CONTINUOUS
 62
0
 66
1
 40
7.6042175
 41
7.6042175
 70
0
  0
VERTEX
  8
0
 42
1.0
 10
8.3335E-002
 20
0.0
 70
0
  0
VERTEX
  8
0
 42
1.0
 10
-8.3335E-002
 20
0.0
 70
0
  0
VERTEX
  8
0
 42
0.0
 10
8.3335E-002
 20
0.0
 70
0
  0
SEQEND
  0
LINE
  8
0
  6
CONTINUOUS
 62
0
 10
0.0
 20
0.0
 11
-1.0
 21
0.0
  0
ENDBLK
  0
BLOCK
  2
_AH17
  3
_AH
 10
0.0
 20
0.0
 70
64
  0
LINE
  8
0
  6
CONTINUOUS
 62
0
 10
-1.66667E-001
 20
-1.66667E-001
 11
1.66667E-001
 21
-1.66667E-001
  0
LINE
  8
0
  6
CONTINUOUS
 62
0
 10
1.66667E-001
 20
-1.66667E-001
 11
1.66667E-001
 21
1.66667E-001
  0
LINE
  8
0
  6
CONTINUOUS
 62
0
 10
1.66667E-001
 20
1.66667E-001
 11
-1.66667E-001
 21
1.66667E-001
  0
LINE
  8
0
  6
CONTINUOUS
 62
0
 10
-1.66667E-001
 20
1.66667E-001
 11
-1.66667E-001
 21
-1.66667E-001
  0
LINE
  8
0
  6
CONTINUOUS
 62
0
 10
0.0
 20
0.0
 11
-1.0
 21
0.0
  0
ENDBLK
  0
BLOCK
  2
_AH18
  3
_AH
 10
0.0
 20
0.0
 70
64
  0
SOLID
  8
0
  6
CONTINUOUS
 62
0
 10
-1.66667E-001
 20
-1.66667E-001
 11
1.66667E-001
 21
-1.66667E-001
 12
-1.66667E-001
 22
1.66667E-001
 13
1.66667E-001
 23
1.66667E-001
  0
LINE
  8
0
  6
CONTINUOUS
 62
0
 10
0.0
 20
0.0
 11
-1.0
 21
0.0
  0
ENDBLK
  0
BLOCK
  2
_AH19
  3
_AH
 10
0.0
 20
0.0
 70
64
  0
LINE
  8
0
  6
CONTINUOUS
 62
0
 10
-5.0E-001
 20
-5.0E-001
 11
5.0E-001
 21
5.0E-001
  0
LINE
  8
0
  6
CONTINUOUS
 62
0
 10
0.0
 20
0.0
 11
-1.0
 21
0.0
  0
ENDBLK
  0
BLOCK
  2
_AH20
  3
_AH
 10
0.0
 20
0.0
 70
64
  0
POLYLINE
  8
0
  6
CONTINUOUS
 62
0
 66
1
 40
5.0E-001
 41
5.0E-001
 70
0
  0
VERTEX
  8
0
 42
4.1421356E-001
 10
-1.66667E-001
 20
-1.66667E-001
 70
0
  0
VERTEX
  8
0
 42
0.0
 10
0.0
 20
0.0
 70
0
  0
SEQEND
  0
POLYLINE
  8
0
  6
CONTINUOUS
 62
0
 66
1
 40
5.0E-001
 41
5.0E-001
 70
0
  0
VERTEX
  8
0
 42
4.1421356E-001
 10
1.66667E-001
 20
1.66667E-001
 70
0
  0
VERTEX
  8
0
 42
0.0
 10
0.0
 20
0.0
 70
0
  0
SEQEND
  0
LINE
  8
0
  6
CONTINUOUS
 62
0
 10
0.0
 20
0.0
 11
-1.0
 21
0.0
  0
ENDBLK
  0
BLOCK
  2
_AH21
  3
_AH
 10
0.0
 20
0.0
 70
64
  0
LINE
  8
0
  6
CONTINUOUS
 62
0
 10
0.0
 20
0.0
 11
-1.0
 21
-1.66667E-001
  0
LINE
  8
0
  6
CONTINUOUS
 62
0
 10
-1.0
 20
-1.66667E-001
 11
-1.0
 21
1.66667E-001
  0
LINE
  8
0
  6
CONTINUOUS
 62
0
 10
-1.0
 20
1.66667E-001
 11
0.0
 21
0.0
  0
ENDBLK
  0
BLOCK
  2
TTZU
 10
0.0
 20
0.0
 70
0
  0
ARC
  8
3D_SICHTBARE_KANTEN
  6
CONTINUOUS
 62
40
 10
2.8E+001
 20
7.0
 40
3.0
 50
3.5999999E+002
 51
4.5000001E+002
  0
ARC
  8
3D_SICHTBARE_KANTEN
  6
CONTINUOUS
 62
40
 10
2.8E+001
 20
-7.0
 40
3.0
 50
2.6999999E+002
 51
3.6000001E+002
  0
LINE
  8
3D_SICHTBARE_KANTEN
  6
CONTINUOUS
 62
40
 10
2.8E+001
 20
-1.0E+001
 11
0.0
 21
-1.0E+001
  0
LINE
  8
3D_SICHTBARE_KANTEN
  6
CONTINUOUS
 62
40
 10
3.1E+001
 20
7.0
 11
3.1E+001
 21
-7.0
  0
LINE
  8
3D_SICHTBARE_KANTEN
  6
CONTINUOUS
 62
40
 10
0.0
 20
1.0E+001
 11
2.8E+001
 21
1.0E+001
  0
LINE
  8
3D_SICHTBARE_KANTEN
  6
CONTINUOUS
 62
1
 10
2.8E+001
 20
7.5
 11
0.0
 21
7.5
  0
ARC
  8
3D_SICHTBARE_KANTEN
  6
CONTINUOUS
 62
1
 10
2.8E+001
 20
7.0
 40
5.0E-001
 50
0.0
 51
9.0E+001
  0
LINE
  8
3D_SICHTBARE_KANTEN
  6
CONTINUOUS
 62
1
 10
2.85E+001
 20
-7.0
 11
2.85E+001
 21
7.0
  0
ARC
  8
3D_SICHTBARE_KANTEN
  6
CONTINUOUS
 62
1
 10
2.8E+001
 20
-7.0
 40
5.0E-001
 50
2.7E+002
 51
3.6E+002
  0
LINE
  8
3D_SICHTBARE_KANTEN
  6
CONTINUOUS
 62
1
 10
0.0
 20
-7.5
 11
2.8E+001
 21
-7.5
  0
LINE
  8
3D_SICHTBARE_KANTEN
  6
CONTINUOUS
 62
1
 10
2.8E+001
 20
-8.5
 11
0.0
 21
-8.5
  0
ARC
  8
3D_SICHTBARE_KANTEN
  6
CONTINUOUS
 62
1
 10
2.8E+001
 20
-7.0
 40
1.5
 50
2.7E+002
 51
3.6E+002
  0
LINE
  8
3D_SICHTBARE_KANTEN
  6
CONTINUOUS
 62
1
 10
2.95E+001
 20
7.0
 11
2.95E+001
 21
-7.0
  0
ARC
  8
3D_SICHTBARE_KANTEN
  6
CONTINUOUS
 62
1
 10
2.8E+001
 20
7.0
 40
1.5
 50
0.0
 51
9.0E+001
  0
LINE
  8
3D_SICHTBARE_KANTEN
  6
CONTINUOUS
 62
1
 10
0.0
 20
8.5
 11
2.8E+001
 21
8.5
  0
LINE
  8
3D_SICHTBARE_KANTEN
  6
CONTINUOUS
 62
40
 10
0.0
 20
9.7
 11
0.0
 21
1.0E+001
  0
LINE
  8
3D_SICHTBARE_KANTEN
  6
CONTINUOUS
 62
40
 10
0.0
 20
-1.0E+001
 11
0.0
 21
-9.7
  0
LINE
  8
3D_SICHTBARE_KANTEN
  6
CONTINUOUS
 62
40
 10
0.0
 20
-9.7
 11
0.0
 21
-8.5
  0
LINE
  8
3D_SICHTBARE_KANTEN
  6
CONTINUOUS
 62
1
 10
0.0
 20
-8.5
 11
0.0
 21
-7.5
  0
LINE
  8
3D_SICHTBARE_KANTEN
  6
CONTINUOUS
 62
40
 10
0.0
 20
-7.5
 11
0.0
 21
7.5
  0
LINE
  8
3D_SICHTBARE_KANTEN
  6
CONTINUOUS
 62
1
 10
0.0
 20
7.5
 11
0.0
 21
8.5
  0
LINE
  8
3D_SICHTBARE_KANTEN
  6
CONTINUOUS
 62
40
 10
0.0
 20
8.5
 11
0.0
 21
9.7
  0
POINT
  8
Drafting_Hidden_Entities
  6
CONTINUOUS
 62
1
 10
0.0
 20
0.0
  0
ENDBLK
  0
BLOCK
  2
3
 10
0.0
 20
0.0
 70
0
  0
TEXT
  8
2D_TEXT
  6
CONTINUOUS
 62
40
 10
2.1506884E+002
 20
3.4691481E+001
 40
1.0E+001
  1
p439101.she
 41
6.5454545E-001
 72
1
 11
1.7906884E+002
 21
2.9691481E+001
 73
2
  0
TEXT
  8
2D_TEXT
  6
CONTINUOUS
 62
150
 10
1.3993183E+002
 20
1.2917903E+001
 40
7.0
  1
Maßstab:
 41
6.4687502E-001
 72
1
 11
1.2181933E+002
 21
9.4179026
 73
2
  0
LINE
  8
MED-1
  6
CONTINUOUS
 62
3
 10
0.0
 20
4.0E+001
 11
0.0
 21
7.56132E+001
  0
LINE
  8
MED-1
  6
CONTINUOUS
 62
3
 10
0.0
 20
7.56132E+001
 11
2.26714E+002
 21
7.56132E+001
  0
LINE
  8
MED-1
  6
CONTINUOUS
 62
3
 10
2.26714E+002
 20
7.56132E+001
 11
2.26714E+002
 21
4.0E+001
  0
TEXT
  8
2D_TEXT
  6
CONTINUOUS
 62
150
 10
4.6041464E+001
 20
5.1228346E+001
 40
7.0
  1
Benennung
 41
6.5000002E-001
 72
1
 11
2.5566463E+001
 21
4.7728346E+001
 73
2
  0
TEXT
  8
2D_TEXT
  6
CONTINUOUS
 62
40
 10
2.1063639E+001
 20
5.8891194E+001
 40
1.0E+001
  1
Montage Bandseite
 41
6.6176471E-001
  0
TEXT
  8
2D_TEXT
  6
CONTINUOUS
 62
150
 10
1.7089744E+002
 20
5.2493312E+001
 40
7.0
  1
verstellb. Gleitschiene
 41
6.6521741E-001
 72
1
 11
1.1734744E+002
 21
4.8993312E+001
 73
2
  0
TEXT
  8
2D_TEXT
  6
CONTINUOUS
 62
150
 10
1.3405737E+002
 20
3.2116202E+001
 40
7.0
  1
Zng.Nr.
 41
6.4285716E-001
 72
1
 11
1.1830737E+002
 21
2.8616202E+001
 73
2
  0
TEXT
  8
2D_TEXT
  6
CONTINUOUS
 62
40
 10
9.1858944E+001
 20
3.486946E+001
 40
1.0E+001
  1
M.Schell
 41
6.46875E-001
 72
1
 11
6.5983944E+001
 21
2.986946E+001
 73
2
  0
TEXT
  8
2D_TEXT
  6
CONTINUOUS
 62
40
 10
9.1069393E+001
 20
1.572172E+001
 40
1.0E+001
  1
01.10.97
 41
6.46875E-001
 72
1
 11
6.5194393E+001
 21
1.072172E+001
 73
2
  0
TEXT
  8
2D_TEXT
  6
CONTINUOUS
 62
150
 10
2.2949667E+001
 20
3.2429518E+001
 40
7.0
  1
gez.
 41
6.1875002E-001
 72
1
 11
1.4287167E+001
 21
2.8929518E+001
 73
2
  0
TEXT
  8
2D_TEXT
  6
CONTINUOUS
 62
150
 10
2.5938815E+001
 20
1.3630694E+001
 40
7.0
  1
Datum
 41
6.3000002E-001
 72
1
 11
1.4913814E+001
 21
1.0130694E+001
 73
2
  0
TEXT
  8
2D_TEXT
  6
CONTINUOUS
 62
40
 10
1.6272375E+002
 20
1.5031474E+001
 40
1.0E+001
  1
1:2
 41
6.0E-001
 72
1
 11
1.5372375E+002
 21
1.0031474E+001
 73
2
  0
LINE
  8
MED-1
  6
CONTINUOUS
 62
3
 10
1.79314E+002
 20
2.0E+001
 11
1.79314E+002
 21
0.0
  0
TEXT
  8
2D_TEXT
  6
CONTINUOUS
 62
40
 10
2.1114953E+002
 20
1.5442698E+001
 40
1.0E+001
  1
A 3
 41
6.0E-001
 72
1
 11
2.0214953E+002
 21
1.0442698E+001
 73
2
  0
LINE
  8
MED-1
  6
CONTINUOUS
 62
3
 10
0.0
 20
4.0E+001
 11
2.26714E+002
 21
4.0E+001
  0
LINE
  8
MED-1
  6
CONTINUOUS
 62
3
 10
2.26714E+002
 20
4.0E+001
 11
2.26714E+002
 21
0.0
  0
LINE
  8
MED-1
  6
CONTINUOUS
 62
3
 10
2.26714E+002
 20
0.0
 11
0.0
 21
0.0
  0
LINE
  8
MED-1
  6
CONTINUOUS
 62
3
 10
0.0
 20
0.0
 11
0.0
 21
4.0E+001
  0
LINE
  8
MED-1
  6
CONTINUOUS
 62
3
 10
9.962E+001
 20
4.0E+001
 11
9.962E+001
 21
0.0
  0
LINE
  8
MED-1
  6
CONTINUOUS
 62
3
 10
0.0
 20
2.0E+001
 11
2.26714E+002
 21
2.0E+001
  0
POINT
  8
Drafting_Hidden_Entities
  6
CONTINUOUS
 62
1
 10
0.0
 20
0.0
  0
ENDBLK
  0
BLOCK
  2
1
 10
0.0
 20
0.0
 70
0
  0
LINE
  8
2D_SICHTBARE_KANTEN
  6
CONTINUOUS
 62
40
 10
3.9949997E+002
 20
5.4999954E+001
 11
3.9949997E+002
 21
5.2699997E+001
  0
LINE
  8
2D_SICHTBARE_KANTEN
  6
CONTINUOUS
 62
40
 10
3.9949997E+002
 20
5.2699997E+001
 11
4.1649997E+002
 21
5.2699997E+001
  0
LINE
  8
2D_SICHTBARE_KANTEN
  6
CONTINUOUS
 62
40
 10
4.1649997E+002
 20
5.2699997E+001
 11
4.1649997E+002
 21
5.4999954E+001
  0
LINE
  8
2D_SICHTBARE_KANTEN
  6
CONTINUOUS
 62
40
 10
4.1402496E+002
 20
5.2699997E+001
 11
4.1402496E+002
 21
5.2249985E+001
  0
LINE
  8
2D_SICHTBARE_KANTEN
  6
CONTINUOUS
 62
40
 10
4.1402496E+002
 20
5.2249985E+001
 11
4.0197495E+002
 21
5.2249985E+001
  0
LINE
  8
2D_SICHTBARE_KANTEN
  6
CONTINUOUS
 62
40
 10
4.0197495E+002
 20
5.2249985E+001
 11
4.0197495E+002
 21
5.2699997E+001
  0
LINE
  8
2D_SICHTBARE_KANTEN
  6
CONTINUOUS
 62
40
 10
4.0302496E+002
 20
5.2249985E+001
 11
4.0302496E+002
 21
5.1249985E+001
  0
LINE
  8
2D_SICHTBARE_KANTEN
  6
CONTINUOUS
 62
40
 10
4.1297491E+002
 20
5.2249985E+001
 11
4.1297491E+002
 21
5.1249985E+001
  0
LINE
  8
2D_SICHTBARE_KANTEN
  6
CONTINUOUS
 62
40
 10
2.799999E+001
 20
5.1249985E+001
 11
2.799999E+001
 21
5.1749985E+001
  0
ARC
  8
2D_SICHTBARE_KANTEN
  6
CONTINUOUS
 62
40
 10
2.849999E+001
 20
5.1749984E+001
 40
5.0000028E-001
 50
9.0E+001
 51
1.8E+002
  0
LINE
  8
2D_SICHTBARE_KANTEN
  6
CONTINUOUS
 62
40
 10
2.849999E+001
 20
5.2249985E+001
 11
3.749999E+001
 21
5.2249985E+001
  0
ARC
  8
2D_SICHTBARE_KANTEN
  6
CONTINUOUS
 62
40
 10
3.7500001E+001
 20
5.1749996E+001
 40
4.9998907E-001
 50
3.5999875E+002
 51
4.5000125E+002
  0
LINE
  8
2D_SICHTBARE_KANTEN
  6
CONTINUOUS
 62
40
 10
3.799999E+001
 20
5.1749985E+001
 11
3.799999E+001
 21
5.1249985E+001
  0
LINE
  8
2D_SICHTBARE_KANTEN
  6
CONTINUOUS
 62
40
 10
2.2E+001
 20
4.6249985E+001
 11
4.4E+001
 21
4.6249985E+001
  0
LINE
  8
2D_SICHTBARE_KANTEN
  6
CONTINUOUS
 62
40
 10
4.4E+001
 20
4.6249985E+001
 11
4.4E+001
 21
3.825E+001
  0
LINE
  8
2D_SICHTBARE_KANTEN
  6
CONTINUOUS
 62
40
 10
4.1899994E+002
 20
4.6249985E+001
 11
4.1899994E+002
 21
5.1249985E+001
  0
LINE
  8
2D_SICHTBARE_KANTEN
  6
CONTINUOUS
 62
40
 10
2.2E+001
 20
5.1249985E+001
 11
4.1899994E+002
 21
5.1249985E+001
  0
LINE
  8
2D_SICHTBARE_KANTEN
  6
CONTINUOUS
 62
40
 10
2.2E+001
 20
3.825E+001
 11
2.2E+001
 21
5.1249985E+001
  0
LINE
  8
2D_SICHTBARE_KANTEN
  6
CONTINUOUS
 62
40
 10
2.2E+001
 20
4.6249985E+001
 11
4.1899994E+002
 21
4.6249985E+001
  0
LINE
  8
2D_SICHTBARE_KANTEN
  6
CONTINUOUS
 62
40
 10
4.0151495E+002
 20
4.6249985E+001
 11
4.0151495E+002
 21
4.5749954E+001
  0
ARC
  8
2D_SICHTBARE_KANTEN
  6
CONTINUOUS
 62
40
 10
4.0201495E+002
 20
4.5749948E+001
 40
4.9999411E-001
 50
1.7999933E+002
 51
2.7000067E+002
  0
LINE
  8
2D_SICHTBARE_KANTEN
  6
CONTINUOUS
 62
40
 10
4.0201495E+002
 20
4.5249954E+001
 11
4.1398492E+002
 21
4.5249954E+001
  0
ARC
  8
2D_SICHTBARE_KANTEN
  6
CONTINUOUS
 62
40
 10
4.1398494E+002
 20
4.5749935E+001
 40
4.9998037E-001
 50
2.6999775E+002
 51
3.6000225E+002
  0
LINE
  8
2D_SICHTBARE_KANTEN
  6
CONTINUOUS
 62
40
 10
4.1448492E+002
 20
4.5749954E+001
 11
4.1448492E+002
 21
4.6249985E+001
  0
LINE
  8
2D_MITTELLINIEN
  6
CENTERLINE
 62
1
 10
3.3E+001
 20
5.4296097E+001
 11
3.3E+001
 21
3.0957826E+001
  0
CIRCLE
  8
2D_VERDECKTE_KANTEN
  6
HIDDEN
 62
1
 10
0.0
 20
2.7E+001
 40
5.0
  0
CIRCLE
  8
2D_VERDECKTE_KANTEN
  6
HIDDEN
 62
1
 10
1.0799999E+002
 20
1.9E+001
 40
5.0
  0
LINE
  8
2D_MITTELLINIEN
  6
CENTERLINE
 62
1
 10
1.0799998E+002
 20
2.6166641E+001
 11
1.0799998E+002
 21
1.173114E+001
  0
LINE
  8
2D_MITTELLINIEN
  6
CENTERLINE
 62
1
 10
1.1499251E+002
 20
1.9E+001
 11
1.0075749E+002
 21
1.9E+001
  0
LINE
  8
2D_MITTELLINIEN
  6
CENTERLINE
 62
1
 10
5.2E+001
 20
2.6166641E+001
 11
5.2E+001
 21
1.173114E+001
  0
LINE
  8
2D_MITTELLINIEN
  6
CENTERLINE
 62
1
 10
5.8992523E+001
 20
1.9E+001
 11
4.4757507E+001
 21
1.9E+001
  0
CIRCLE
  8
2D_VERDECKTE_KANTEN
  6
HIDDEN
 62
1
 10
5.2E+001
 20
1.9E+001
 40
5.0
  0
CIRCLE
  8
2D_VERDECKTE_KANTEN
  6
HIDDEN
 62
1
 10
1.5999998E+002
 20
-1.6E+001
 40
5.0
  0
LINE
  8
99
  6
CONTINUOUS
 62
1
 10
0.0
 20
-2.3502838E+001
 11
0.0
 21
3.4773895E+001
  0
LINE
  8
2D_MITTELLINIEN
  6
CENTERLINE
 62
1
 10
-6.059021
 20
2.7E+001
 11
7.6042175
 21
2.7E+001
  0
LINE
  8
2D_MITTELLINIEN
  6
CENTERLINE
 62
1
 10
1.66059E+002
 20
-1.6E+001
 11
1.5239576E+002
 21
-1.6E+001
  0
LINE
  8
2D_MITTELLINIEN
  6
CENTERLINE
 62
1
 10
1.5999997E+002
 20
-2.3502838E+001
 11
1.5999997E+002
 21
3.4489731E+001
  0
LINE
  8
2D_MITTELLINIEN
  6
CENTERLINE
 62
1
 10
1.66059E+002
 20
0.0
 11
1.5239576E+002
 21
0.0
  0
LINE
  8
2D_MITTELLINIEN
  6
CENTERLINE
 62
1
 10
1.66059E+002
 20
1.1E+001
 11
1.5239576E+002
 21
1.1E+001
  0
LINE
  8
2D_MITTELLINIEN
  6
CENTERLINE
 62
1
 10
1.66059E+002
 20
2.7E+001
 11
1.5239576E+002
 21
2.7E+001
  0
LINE
  8
2D_MITTELLINIEN
  6
CENTERLINE
 62
1
 10
-6.059021
 20
-1.6E+001
 11
7.6042175
 21
-1.6E+001
  0
LINE
  8
2D_MITTELLINIEN
  6
CENTERLINE
 62
1
 10
-6.059021
 20
0.0
 11
7.6042175
 21
0.0
  0
LINE
  8
2D_MITTELLINIEN
  6
CENTERLINE
 62
1
 10
-6.059021
 20
1.1E+001
 11
7.6042175
 21
1.1E+001
  0
CIRCLE
  8
2D_VERDECKTE_KANTEN
  6
HIDDEN
 62
1
 10
1.5999998E+002
 20
0.0
 40
5.0
  0
CIRCLE
  8
2D_VERDECKTE_KANTEN
  6
HIDDEN
 62
1
 10
1.5999998E+002
 20
1.1E+001
 40
5.0
  0
CIRCLE
  8
2D_VERDECKTE_KANTEN
  6
HIDDEN
 62
1
 10
1.5999998E+002
 20
2.7E+001
 40
5.0
  0
CIRCLE
  8
2D_VERDECKTE_KANTEN
  6
HIDDEN
 62
1
 10
0.0
 20
-1.6E+001
 40
5.0
  0
CIRCLE
  8
2D_VERDECKTE_KANTEN
  6
HIDDEN
 62
1
 10
0.0
 20
0.0
 40
5.0
  0
CIRCLE
  8
2D_VERDECKTE_KANTEN
  6
HIDDEN
 62
1
 10
0.0
 20
1.1E+001
 40
5.0
  0
LINE
  8
2D_SICHTBARE_KANTEN
  6
CONTINUOUS
 62
40
 10
-5.2E+001
 20
3.825E+001
 11
2.21E+002
 21
3.825E+001
  0
LINE
  8
2D_MITTELLINIEN
  6
CENTERLINE
 62
1
 10
1.5999998E+002
 20
-2.3502838E+001
 11
1.5999998E+002
 21
3.1755005E+001
  0
LINE
  8
2D_VERDECKTE_KANTEN
  6
HIDDEN
 62
1
 10
1.0999985E+001
 20
6.7499985E+001
 11
1.0999985E+001
 21
6.2499985E+001
  0
ARC
  8
2D_VERDECKTE_KANTEN
  6
HIDDEN
 62
1
 10
7.9999847
 20
6.2499969E+001
 40
3.0
 50
1.8E+002
 51
3.6000029E+002
  0
LINE
  8
2D_VERDECKTE_KANTEN
  6
HIDDEN
 62
1
 10
4.9999847
 20
6.2499969E+001
 11
4.9999847
 21
6.7499985E+001
  0
ARC
  8
2D_VERDECKTE_KANTEN
  6
HIDDEN
 62
1
 10
7.9999847
 20
6.7499985E+001
 40
3.0
 50
0.0
 51
1.8E+002
  0
LINE
  8
2D_MITTELLINIEN
  6
CENTERLINE
 62
1
 10
4.3601175E+002
 20
7.2074231E+001
 11
4.3599799E+002
 21
5.7675157E+001
  0
LINE
  8
2D_MITTELLINIEN
  6
CENTERLINE
 62
1
 10
4.4124997E+002
 20
6.4999985E+001
 11
4.3099997E+002
 21
6.4999985E+001
  0
LINE
  8
2D_MITTELLINIEN
  6
CENTERLINE
 62
1
 10
8.0
 20
5.7835068E+001
 11
7.9999695
 21
7.200174E+001
  0
LINE
  8
2D_VERDECKTE_KANTEN
  6
HIDDEN
 62
1
 10
4.3900498E+002
 20
6.7499985E+001
 11
4.3900498E+002
 21
6.2499985E+001
  0
ARC
  8
2D_VERDECKTE_KANTEN
  6
HIDDEN
 62
1
 10
4.3600498E+002
 20
6.2499969E+001
 40
3.0
 50
1.8E+002
 51
3.6000029E+002
  0
LINE
  8
2D_VERDECKTE_KANTEN
  6
HIDDEN
 62
1
 10
4.3300498E+002
 20
6.2499969E+001
 11
4.3300498E+002
 21
6.7499985E+001
  0
ARC
  8
2D_VERDECKTE_KANTEN
  6
HIDDEN
 62
1
 10
4.3600498E+002
 20
6.7499985E+001
 40
3.0
 50
0.0
 51
1.8E+002
  0
LINE
  8
2D_MITTELLINIEN
  6
CENTERLINE
 62
1
 10
1.3E+001
 20
6.4999985E+001
 11
2.75
 21
6.4999985E+001
  0
ARC
  8
2D_SICHTBARE_KANTEN
  6
CONTINUOUS
 62
40
 10
4.417538E+002
 20
7.3999965E+001
 40
9.9998906E-001
 50
3.5999937E+002
 51
4.5000063E+002
  0
LINE
  8
2D_SICHTBARE_KANTEN
  6
CONTINUOUS
 62
40
 10
4.4275378E+002
 20
7.3999954E+001
 11
4.4275378E+002
 21
5.5999954E+001
  0
ARC
  8
2D_SICHTBARE_KANTEN
  6
CONTINUOUS
 62
40
 10
4.4175379E+002
 20
5.5999948E+001
 40
9.999935E-001
 50
2.6999963E+002
 51
3.6000037E+002
  0
LINE
  8
2D_SICHTBARE_KANTEN
  6
CONTINUOUS
 62
40
 10
4.4175378E+002
 20
5.4999954E+001
 11
2.2462006
 21
5.4999954E+001
  0
ARC
  8
2D_SICHTBARE_KANTEN
  6
CONTINUOUS
 62
40
 10
2.2462007
 20
5.5999954E+001
 40
1.0000001
 50
1.8E+002
 51
2.7E+002
  0
LINE
  8
2D_SICHTBARE_KANTEN
  6
CONTINUOUS
 62
40
 10
1.2462006
 20
5.5999954E+001
 11
1.2462006
 21
7.4999954E+001
  0
LINE
  8
2D_SICHTBARE_KANTEN
  6
CONTINUOUS
 62
40
 10
1.2462006
 20
7.4999954E+001
 11
4.4175378E+002
 21
7.4999954E+001
  0
LINE
  8
2D_SICHTBARE_KANTEN
  6
CONTINUOUS
 62
40
 10
1.3246185E+001
 20
7.4999954E+001
 11
1.3246185E+001
 21
5.4999985E+001
  0
LINE
  8
2D_SICHTBARE_KANTEN
  6
CONTINUOUS
 62
40
 10
4.3075375E+002
 20
7.4999954E+001
 11
4.3075375E+002
 21
5.4999954E+001
  0
LINE
  8
2D_SICHTBARE_KANTEN
  6
CONTINUOUS
 62
40
 10
2.975E+001
 20
4.625E+001
 11
3.6249992E+001
 21
4.625E+001
  0
LINE
  8
2D_MITTELLINIEN
  6
CENTERLINE
 62
1
 10
4.0799994E+002
 20
4.4457382E+001
 11
4.0799994E+002
 21
5.8200241E+001
  0
LINE
  8
2D_SICHTBARE_KANTEN
  6
CONTINUOUS
 62
40
 10
2.7099998E+001
 20
4.625E+001
 11
3.8899994E+001
 21
4.625E+001
  0
LINE
  8
2D_SICHTBARE_KANTEN
  6
CONTINUOUS
 62
40
 10
-5.2E+001
 20
-2.675E+001
 11
2.21E+002
 21
-2.675E+001
  0
LINE
  8
2D_SICHTBARE_KANTEN
  6
CONTINUOUS
 62
40
 10
-5.5E+001
 20
3.525E+001
 11
-5.5E+001
 21
-2.375E+001
  0
LINE
  8
2D_SICHTBARE_KANTEN
  6
CONTINUOUS
 62
40
 10
2.24E+002
 20
3.525E+001
 11
2.24E+002
 21
-2.375E+001
  0
LINE
  8
2D_SICHTBARE_KANTEN
  6
CONTINUOUS
 62
40
 10
-4.45E+001
 20
3.825E+001
 11
-4.45E+001
 21
-2.675E+001
  0
LINE
  8
2D_SICHTBARE_KANTEN
  6
CONTINUOUS
 62
40
 10
2.135E+002
 20
3.825E+001
 11
2.135E+002
 21
-2.675E+001
  0
ARC
  8
2D_SICHTBARE_KANTEN
  6
CONTINUOUS
 62
40
 10
2.21E+002
 20
3.525E+001
 40
3.0
 50
0.0
 51
9.0E+001
  0
ARC
  8
2D_SICHTBARE_KANTEN
  6
CONTINUOUS
 62
40
 10
2.21E+002
 20
-2.375E+001
 40
3.0
 50
2.7E+002
 51
3.6E+002
  0
ARC
  8
2D_SICHTBARE_KANTEN
  6
CONTINUOUS
 62
40
 10
-5.2E+001
 20
-2.375E+001
 40
3.0
 50
1.8E+002
 51
2.7E+002
  0
ARC
  8
2D_SICHTBARE_KANTEN
  6
CONTINUOUS
 62
40
 10
-5.2E+001
 20
3.525E+001
 40
3.0
 50
9.0E+001
 51
1.8E+002
  0
POINT
  8
Drafting_Hidden_Entities
  6
CONTINUOUS
 62
1
 10
0.0
 20
0.0
  0
ENDBLK
  0
BLOCK
  2
W
 10
0.0
 20
0.0
 70
0
  0
LINE
  8
2D_BEMASSUNG
  6
CENTERLINE
 62
150
 10
0.0
 20
-1.35E+001
 11
0.0
 21
-8.5
  0
LINE
  8
2D_BEMASSUNG
  6
CENTERLINE
 62
150
 10
-1.4237E-006
 20
-2.9500011E+001
 11
-1.4237E-006
 21
-2.4500011E+001
  0
LINE
  8
2D_SICHTBARE_KANTEN
  6
CONTINUOUS
 62
40
 10
-1.7000001E+001
 20
3.5499949E+001
 11
-1.7000001E+001
 21
2.725E+001
  0
LINE
  8
2D_SICHTBARE_KANTEN
  6
CONTINUOUS
 62
40
 10
-3.9000005E+001
 20
2.725E+001
 11
-3.9000005E+001
 21
4.0499965E+001
  0
LINE
  8
2D_SICHTBARE_KANTEN
  6
CONTINUOUS
 62
40
 10
-3.9000005E+001
 20
4.0499965E+001
 11
-2.0475042E+001
 21
4.0499965E+001
  0
LINE
  8
2D_SICHTBARE_KANTEN
  6
CONTINUOUS
 62
40
 10
-3.9000005E+001
 20
3.5499949E+001
 11
-2.0554217E+001
 21
3.5499949E+001
  0
LINE
  8
2D_SICHTBARE_KANTEN
  6
CONTINUOUS
 62
40
 10
-1.7000001E+001
 20
3.5499958E+001
 11
-1.7000001E+001
 21
2.7249989E+001
  0
LINE
  8
2D_VERDECKTE_KANTEN
  6
HIDDEN
 62
1
 10
-1.4237E-006
 20
-2.7500418
 11
-1.4237E-006
 21
2.4999958E+001
  0
ARC
  8
2D_VERDECKTE_KANTEN
  6
HIDDEN
 62
1
 10
-4.9998302E-001
 20
2.4999977E+001
 40
4.999816E-001
 50
3.5999789E+002
 51
4.5000211E+002
  0
LINE
  8
2D_VERDECKTE_KANTEN
  6
HIDDEN
 62
1
 10
-5.0000142E-001
 20
2.5499958E+001
 11
-2.0928969
 21
2.5499958E+001
  0
ARC
  8
2D_VERDECKTE_KANTEN
  6
HIDDEN
 62
1
 10
-2.0928575
 20
2.5999982E+001
 40
5.0002333E-001
 50
2.2500241E+002
 51
2.6999548E+002
  0
LINE
  8
2D_VERDECKTE_KANTEN
  6
HIDDEN
 62
1
 10
-2.4464126
 20
2.5646397E+001
 11
-3.1535659
 21
2.6353504E+001
  0
ARC
  8
2D_VERDECKTE_KANTEN
  6
HIDDEN
 62
1
 10
-3.5070699
 20
2.6000095E+001
 40
4.998634E-001
 50
4.499234E+001
 51
9.0001327E+001
  0
LINE
  8
2D_VERDECKTE_KANTEN
  6
HIDDEN
 62
1
 10
-3.5070815
 20
2.6499958E+001
 11
-3.6928725
 21
2.6499958E+001
  0
ARC
  8
2D_VERDECKTE_KANTEN
  6
HIDDEN
 62
1
 10
-3.6929471
 20
2.60001E+001
 40
4.9985856E-001
 50
8.9991448E+001
 51
1.3500789E+002
  0
LINE
  8
2D_VERDECKTE_KANTEN
  6
HIDDEN
 62
1
 10
-4.0464492
 20
2.6353504E+001
 11
-4.853517
 21
2.5546421E+001
  0
ARC
  8
2D_VERDECKTE_KANTEN
  6
HIDDEN
 62
1
 10
-4.5001513
 20
2.5192892E+001
 40
4.9985012E-001
 50
1.3498676E+002
 51
1.8000371E+002
  0
LINE
  8
2D_VERDECKTE_KANTEN
  6
HIDDEN
 62
1
 10
-5.0000014
 20
2.519286E+001
 11
-5.0000014
 21
-3.0692943E+001
  0
ARC
  8
2D_VERDECKTE_KANTEN
  6
HIDDEN
 62
1
 10
-4.500042
 20
-3.069293E+001
 40
4.9995942E-001
 50
1.8000148E+002
 51
2.2500805E+002
  0
LINE
  8
2D_VERDECKTE_KANTEN
  6
HIDDEN
 62
1
 10
-4.853517
 20
-3.1046505E+001
 11
-4.0464492
 21
-3.1853588E+001
  0
ARC
  8
2D_VERDECKTE_KANTEN
  6
HIDDEN
 62
1
 10
-3.6928717
 20
-3.1500001E+001
 40
5.0004068E-001
 50
2.2500076E+002
 51
2.6999991E+002
  0
LINE
  8
2D_VERDECKTE_KANTEN
  6
HIDDEN
 62
1
 10
-3.6928725
 20
-3.2000042E+001
 11
-3.5070815
 21
-3.2000042E+001
  0
ARC
  8
2D_VERDECKTE_KANTEN
  6
HIDDEN
 62
1
 10
-3.5070975
 20
-3.1500112E+001
 40
4.9992995E-001
 50
2.7000183E+002
 51
3.150045E+002
  0
LINE
  8
2D_VERDECKTE_KANTEN
  6
HIDDEN
 62
1
 10
-3.1535659
 20
-3.1853588E+001
 11
-2.4464126
 21
-3.114648E+001
  0
ARC
  8
2D_VERDECKTE_KANTEN
  6
HIDDEN
 62
1
 10
-2.0928675
 20
-3.1500041E+001
 40
4.9999931E-001
 50
9.0003377E+001
 51
1.3499873E+002
  0
LINE
  8
2D_VERDECKTE_KANTEN
  6
HIDDEN
 62
1
 10
-2.0928969
 20
-3.1000042E+001
 11
-5.0000142E-001
 21
-3.1000042E+001
  0
ARC
  8
2D_VERDECKTE_KANTEN
  6
HIDDEN
 62
1
 10
-5.0000048E-001
 20
-3.0500043E+001
 40
4.9999906E-001
 50
2.6999989E+002
 51
3.6000011E+002
  0
LINE
  8
2D_VERDECKTE_KANTEN
  6
HIDDEN
 62
1
 10
-1.4237E-006
 20
-3.0500042E+001
 11
-1.4237E-006
 21
-2.7500418
  0
LINE
  8
2D_MITTELLINIEN
  6
CENTERLINE
 62
1
 10
-6.0678143
 20
1.6E+001
 11
2.9508057
 21
1.6E+001
  0
LINE
  8
2D_MITTELLINIEN
  6
CENTERLINE
 62
1
 10
-6.0678143
 20
0.0
 11
2.7622681
 21
0.0
  0
LINE
  8
2D_MITTELLINIEN
  6
CENTERLINE
 62
1
 10
-6.0678143
 20
-1.1E+001
 11
2.333313
 21
-1.1E+001
  0
LINE
  8
2D_MITTELLINIEN
  6
CENTERLINE
 62
1
 10
-6.0678774
 20
-2.7000002E+001
 11
2.7207031
 21
-2.7000015E+001
  0
LINE
  8
2D_VERDECKTE_KANTEN
  6
HIDDEN
 62
1
 10
-5.0
 20
-2.1500015E+001
 11
-2.0
 21
-2.4500015E+001
  0
LINE
  8
2D_VERDECKTE_KANTEN
  6
HIDDEN
 62
1
 10
-2.0
 20
-2.4500015E+001
 11
-2.0
 21
-2.9500015E+001
  0
LINE
  8
2D_VERDECKTE_KANTEN
  6
HIDDEN
 62
1
 10
-2.0
 20
-2.9500015E+001
 11
-4.1999512
 21
-3.1700027E+001
  0
LINE
  8
2D_VERDECKTE_KANTEN
  6
HIDDEN
 62
1
 10
-5.0
 20
-5.5
 11
-2.0
 21
-8.5
  0
LINE
  8
2D_VERDECKTE_KANTEN
  6
HIDDEN
 62
1
 10
-2.0
 20
-8.5
 11
-2.0
 21
-1.35E+001
  0
LINE
  8
2D_VERDECKTE_KANTEN
  6
HIDDEN
 62
1
 10
-2.0
 20
-1.35E+001
 11
-5.0
 21
-1.65E+001
  0
LINE
  8
2D_VERDECKTE_KANTEN
  6
HIDDEN
 62
1
 10
-2.0
 20
-1.35E+001
 11
0.0
 21
-1.35E+001
  0
LINE
  8
2D_VERDECKTE_KANTEN
  6
HIDDEN
 62
1
 10
0.0
 20
-8.5
 11
-2.0
 21
-8.5
  0
LINE
  8
2D_VERDECKTE_KANTEN
  6
HIDDEN
 62
1
 10
-2.0
 20
-2.45E+001
 11
0.0
 21
-2.45E+001
  0
LINE
  8
2D_VERDECKTE_KANTEN
  6
HIDDEN
 62
1
 10
0.0
 20
-2.95E+001
 11
-2.0
 21
-2.95E+001
  0
LINE
  8
2D_VERDECKTE_KANTEN
  6
HIDDEN
 62
1
 10
-5.0
 20
2.15E+001
 11
-2.0
 21
1.85E+001
  0
LINE
  8
2D_VERDECKTE_KANTEN
  6
HIDDEN
 62
1
 10
-2.0
 20
1.85E+001
 11
-2.0
 21
1.35E+001
  0
LINE
  8
2D_VERDECKTE_KANTEN
  6
HIDDEN
 62
1
 10
-2.0
 20
1.35E+001
 11
-5.0
 21
1.05E+001
  0
LINE
  8
2D_VERDECKTE_KANTEN
  6
HIDDEN
 62
1
 10
-2.0
 20
1.85E+001
 11
0.0
 21
1.85E+001
  0
LINE
  8
2D_VERDECKTE_KANTEN
  6
HIDDEN
 62
1
 10
0.0
 20
1.35E+001
 11
-2.0
 21
1.35E+001
  0
LINE
  8
2D_VERDECKTE_KANTEN
  6
HIDDEN
 62
1
 10
-5.0
 20
5.5
 11
-2.0
 21
2.5
  0
LINE
  8
2D_VERDECKTE_KANTEN
  6
HIDDEN
 62
1
 10
-2.0
 20
2.5
 11
-2.0
 21
-2.5
  0
LINE
  8
2D_VERDECKTE_KANTEN
  6
HIDDEN
 62
1
 10
-2.0
 20
-2.5
 11
-5.0
 21
-5.5
  0
LINE
  8
2D_VERDECKTE_KANTEN
  6
HIDDEN
 62
1
 10
-2.0
 20
2.5
 11
0.0
 21
2.5
  0
LINE
  8
2D_VERDECKTE_KANTEN
  6
HIDDEN
 62
1
 10
0.0
 20
-2.5
 11
-2.0
 21
-2.5
  0
LINE
  8
2D_SICHTBARE_KANTEN
  6
CONTINUOUS
 62
40
 10
0.0
 20
-3.2750015E+001
 11
0.0
 21
2.725E+001
  0
LINE
  8
2D_SICHTBARE_KANTEN
  6
CONTINUOUS
 62
40
 10
0.0
 20
2.725E+001
 11
-4.9963135E+001
 21
2.725E+001
  0
ARC
  8
2D_SICHTBARE_KANTEN
  6
CONTINUOUS
 62
40
 10
-4.9963122E+001
 20
2.4249987E+001
 40
3.0000131
 50
9.0000238E+001
 51
1.7996303E+002
  0
LINE
  8
2D_SICHTBARE_KANTEN
  6
CONTINUOUS
 62
40
 10
-5.2963135E+001
 20
2.4251923E+001
 11
-5.2998047E+001
 21
-2.9748077E+001
  0
ARC
  8
2D_SICHTBARE_KANTEN
  6
CONTINUOUS
 62
40
 10
-4.999804E+001
 20
-2.9750023E+001
 40
3.0000076
 50
1.7996284E+002
 51
2.6999987E+002
  0
LINE
  8
2D_SICHTBARE_KANTEN
  6
CONTINUOUS
 62
40
 10
-4.9998047E+001
 20
-3.2750031E+001
 11
0.0
 21
-3.2750015E+001
  0
LINE
  8
2D_SICHTBARE_KANTEN
  6
CONTINUOUS
 62
40
 10
-2.0475042E+001
 20
4.0499965E+001
 11
-4.5000014
 21
4.0499965E+001
  0
LINE
  8
2D_SICHTBARE_KANTEN
  6
CONTINUOUS
 62
40
 10
-4.5000014
 20
4.0499965E+001
 11
-4.5000014
 21
3.5499949E+001
  0
LINE
  8
2D_SICHTBARE_KANTEN
  6
CONTINUOUS
 62
40
 10
-4.5000014
 20
3.5499949E+001
 11
-2.0554217E+001
 21
3.5499949E+001
  0
LINE
  8
2D_BEMASSUNG
  6
CENTERLINE
 62
150
 10
-1.4237E-006
 20
5.65E+001
 11
-1.4237E-006
 21
5.15E+001
  0
LINE
  8
2D_MITTELLINIEN
  6
CENTERLINE
 62
1
 10
2.5597487
 20
5.4E+001
 11
-2.9500001E+001
 21
5.4E+001
  0
LINE
  8
2D_SICHTBARE_KANTEN
  6
CONTINUOUS
 62
40
 10
-7.0000663
 20
4.4E+001
 11
-7.0000663
 21
4.1999949E+001
  0
LINE
  8
2D_SICHTBARE_KANTEN
  6
CONTINUOUS
 62
40
 10
-7.0000663
 20
4.1999949E+001
 11
-2.4000066E+001
 21
4.1999949E+001
  0
LINE
  8
2D_SICHTBARE_KANTEN
  6
CONTINUOUS
 62
40
 10
-2.4000066E+001
 20
4.1999949E+001
 11
-2.4000066E+001
 21
4.4E+001
  0
LINE
  8
2D_SICHTBARE_KANTEN
  6
CONTINUOUS
 62
40
 10
-2.0475042E+001
 20
4.1450012E+001
 11
-2.0475042E+001
 21
4.1999949E+001
  0
LINE
  8
2D_SICHTBARE_KANTEN
  6
CONTINUOUS
 62
40
 10
-2.0475042E+001
 20
4.1999949E+001
 11
-2.0475042E+001
 21
4.0499965E+001
  0
LINE
  8
2D_SICHTBARE_KANTEN
  6
CONTINUOUS
 62
40
 10
-1.0524969E+001
 20
4.1450012E+001
 11
-1.0524969E+001
 21
4.1999949E+001
  0
LINE
  8
2D_SICHTBARE_KANTEN
  6
CONTINUOUS
 62
40
 10
-1.0524969E+001
 20
4.1999949E+001
 11
-1.0525017E+001
 21
4.0499965E+001
  0
INSERT
  2
TTZU
  8
2D_SYMBOLE
 10
-1.4237E-006
 20
5.4E+001
 41
1.0
 43
1.0
 42
-1.0
 50
1.8E+002
  0
CIRCLE
  8
3D_SICHTBARE_KANTEN
  6
CONTINUOUS
 62
40
 10
-3.3E+001
 20
-1.1248077E+001
 40
1.5
  0
CIRCLE
  8
3D_SICHTBARE_KANTEN
  6
CONTINUOUS
 62
40
 10
-7.5
 20
1.4251923E+001
 40
1.5
  0
CIRCLE
  8
3D_SICHTBARE_KANTEN
  6
CONTINUOUS
 62
40
 10
-1.6E+001
 20
1.4251923E+001
 40
1.5
  0
CIRCLE
  8
3D_SICHTBARE_KANTEN
  6
CONTINUOUS
 62
40
 10
-2.45E+001
 20
1.4251923E+001
 40
1.5
  0
CIRCLE
  8
3D_SICHTBARE_KANTEN
  6
CONTINUOUS
 62
40
 10
-3.3E+001
 20
1.4251923E+001
 40
1.5
  0
CIRCLE
  8
3D_SICHTBARE_KANTEN
  6
CONTINUOUS
 62
40
 10
-4.15E+001
 20
1.4251923E+001
 40
1.5
  0
CIRCLE
  8
3D_SICHTBARE_KANTEN
  6
CONTINUOUS
 62
40
 10
-7.5
 20
5.7519226
 40
1.5
  0
CIRCLE
  8
3D_SICHTBARE_KANTEN
  6
CONTINUOUS
 62
40
 10
-1.6E+001
 20
5.7519226
 40
1.5
  0
CIRCLE
  8
3D_SICHTBARE_KANTEN
  6
CONTINUOUS
 62
40
 10
-2.45E+001
 20
5.7519226
 40
1.5
  0
CIRCLE
  8
3D_SICHTBARE_KANTEN
  6
CONTINUOUS
 62
40
 10
-3.3E+001
 20
5.7519226
 40
1.5
  0
CIRCLE
  8
3D_SICHTBARE_KANTEN
  6
CONTINUOUS
 62
40
 10
-4.15E+001
 20
5.7519226
 40
1.5
  0
CIRCLE
  8
3D_SICHTBARE_KANTEN
  6
CONTINUOUS
 62
40
 10
-7.5
 20
-2.7480774
 40
1.5
  0
CIRCLE
  8
3D_SICHTBARE_KANTEN
  6
CONTINUOUS
 62
40
 10
-1.6E+001
 20
-2.7480774
 40
1.5
  0
CIRCLE
  8
3D_SICHTBARE_KANTEN
  6
CONTINUOUS
 62
40
 10
-2.45E+001
 20
-2.7480774
 40
1.5
  0
CIRCLE
  8
3D_SICHTBARE_KANTEN
  6
CONTINUOUS
 62
40
 10
-3.3E+001
 20
-2.7480774
 40
1.5
  0
CIRCLE
  8
3D_SICHTBARE_KANTEN
  6
CONTINUOUS
 62
40
 10
-4.15E+001
 20
-2.7480774
 40
1.5
  0
CIRCLE
  8
3D_SICHTBARE_KANTEN
  6
CONTINUOUS
 62
40
 10
-7.5
 20
-1.1248077E+001
 40
1.5
  0
CIRCLE
  8
3D_SICHTBARE_KANTEN
  6
CONTINUOUS
 62
40
 10
-1.6E+001
 20
-1.1248077E+001
 40
1.5
  0
CIRCLE
  8
3D_SICHTBARE_KANTEN
  6
CONTINUOUS
 62
40
 10
-2.45E+001
 20
-1.1248077E+001
 40
1.5
  0
CIRCLE
  8
3D_SICHTBARE_KANTEN
  6
CONTINUOUS
 62
40
 10
-4.15E+001
 20
-1.1248077E+001
 40
1.5
  0
CIRCLE
  8
3D_SICHTBARE_KANTEN
  6
CONTINUOUS
 62
40
 10
-7.5
 20
-1.9748077E+001
 40
1.5
  0
CIRCLE
  8
3D_SICHTBARE_KANTEN
  6
CONTINUOUS
 62
40
 10
-1.6E+001
 20
-1.9748077E+001
 40
1.5
  0
CIRCLE
  8
3D_SICHTBARE_KANTEN
  6
CONTINUOUS
 62
40
 10
-2.45E+001
 20
-1.9748077E+001
 40
1.5
  0
CIRCLE
  8
3D_SICHTBARE_KANTEN
  6
CONTINUOUS
 62
40
 10
-3.3E+001
 20
-1.9748077E+001
 40
1.5
  0
CIRCLE
  8
3D_SICHTBARE_KANTEN
  6
CONTINUOUS
 62
40
 10
-4.15E+001
 20
-1.9748077E+001
 40
1.5
  0
LINE
  8
3D_SICHTBARE_KANTEN
  6
CONTINUOUS
 62
40
 10
-2.3670844E+001
 20
-2.0998077E+001
 11
-2.3714406E+001
 21
-2.0998077E+001
  0
ARC
  8
3D_SICHTBARE_KANTEN
  6
CONTINUOUS
 62
40
 10
-2.9E+001
 20
-2.7480774
 40
1.9E+001
 50
2.8614127E+002
 51
2.8615216E+002
  0
POINT
  8
Drafting_Hidden_Entities
  6
CONTINUOUS
 62
1
 10
0.0
 20
0.0
  0
ENDBLK
  0
BLOCK
  2
TTZUNEW00
 10
0.0
 20
0.0
 70
0
  0
LINE
  8
2D_MITTELLINIEN
  6
CENTERLINE
 62
1
 10
1.5575498E+001
 20
0.0
 11
-2.95E+001
 21
0.0
  0
LINE
  8
2D_SICHTBARE_KANTEN
  6
CONTINUOUS
 62
40
 10
1.4E+001
 20
2.5
 11
0.0
 21
2.5
  0
LINE
  8
2D_SICHTBARE_KANTEN
  6
CONTINUOUS
 62
40
 10
1.4E+001
 20
-2.5
 11
0.0
 21
-2.5
  0
LINE
  8
2D_SICHTBARE_KANTEN
  6
CONTINUOUS
 62
40
 10
1.4E+001
 20
2.5
 11
1.4E+001
 21
-2.5
  0
LINE
  8
2D_SICHTBARE_KANTEN
  6
CONTINUOUS
 62
1
 10
1.4E+001
 20
2.0
 11
0.0
 21
2.0
  0
LINE
  8
2D_SICHTBARE_KANTEN
  6
CONTINUOUS
 62
1
 10
1.4E+001
 20
-2.0
 11
0.0
 21
-2.0
  0
ARC
  8
3D_SICHTBARE_KANTEN
  6
CONTINUOUS
 62
40
 10
-2.8E+001
 20
7.0
 40
3.0
 50
8.9999987E+001
 51
1.8000001E+002
  0
ARC
  8
3D_SICHTBARE_KANTEN
  6
CONTINUOUS
 62
40
 10
-2.8E+001
 20
-7.0
 40
3.0
 50
1.7999999E+002
 51
2.7000001E+002
  0
LINE
  8
3D_SICHTBARE_KANTEN
  6
CONTINUOUS
 62
40
 10
-2.8E+001
 20
-1.0E+001
 11
0.0
 21
-1.0E+001
  0
LINE
  8
3D_SICHTBARE_KANTEN
  6
CONTINUOUS
 62
40
 10
-3.1E+001
 20
7.0
 11
-3.1E+001
 21
-7.0
  0
LINE
  8
3D_SICHTBARE_KANTEN
  6
CONTINUOUS
 62
40
 10
0.0
 20
1.0E+001
 11
-2.8E+001
 21
1.0E+001
  0
LINE
  8
3D_SICHTBARE_KANTEN
  6
CONTINUOUS
 62
1
 10
-2.8E+001
 20
7.5
 11
0.0
 21
7.5
  0
ARC
  8
3D_SICHTBARE_KANTEN
  6
CONTINUOUS
 62
1
 10
-2.8E+001
 20
7.0
 40
5.0E-001
 50
9.0E+001
 51
1.8E+002
  0
LINE
  8
3D_SICHTBARE_KANTEN
  6
CONTINUOUS
 62
1
 10
-2.85E+001
 20
-7.0
 11
-2.85E+001
 21
7.0
  0
ARC
  8
3D_SICHTBARE_KANTEN
  6
CONTINUOUS
 62
1
 10
-2.8E+001
 20
-7.0
 40
5.0E-001
 50
1.8E+002
 51
2.7E+002
  0
LINE
  8
3D_SICHTBARE_KANTEN
  6
CONTINUOUS
 62
1
 10
0.0
 20
-7.5
 11
-2.8E+001
 21
-7.5
  0
LINE
  8
3D_SICHTBARE_KANTEN
  6
CONTINUOUS
 62
1
 10
-2.8E+001
 20
-8.5
 11
0.0
 21
-8.5
  0
ARC
  8
3D_SICHTBARE_KANTEN
  6
CONTINUOUS
 62
1
 10
-2.8E+001
 20
-7.0
 40
1.5
 50
1.8E+002
 51
2.7E+002
  0
LINE
  8
3D_SICHTBARE_KANTEN
  6
CONTINUOUS
 62
1
 10
-2.95E+001
 20
7.0
 11
-2.95E+001
 21
-7.0
  0
ARC
  8
3D_SICHTBARE_KANTEN
  6
CONTINUOUS
 62
1
 10
-2.8E+001
 20
7.0
 40
1.5
 50
9.0E+001
 51
1.8E+002
  0
LINE
  8
3D_SICHTBARE_KANTEN
  6
CONTINUOUS
 62
1
 10
0.0
 20
8.5
 11
-2.8E+001
 21
8.5
  0
LINE
  8
3D_SICHTBARE_KANTEN
  6
CONTINUOUS
 62
40
 10
0.0
 20
9.7
 11
0.0
 21
1.0E+001
  0
LINE
  8
3D_SICHTBARE_KANTEN
  6
CONTINUOUS
 62
40
 10
0.0
 20
-1.0E+001
 11
0.0
 21
-9.7
  0
LINE
  8
3D_SICHTBARE_KANTEN
  6
CONTINUOUS
 62
40
 10
0.0
 20
-9.7
 11
0.0
 21
-8.5
  0
LINE
  8
3D_SICHTBARE_KANTEN
  6
CONTINUOUS
 62
1
 10
0.0
 20
-8.5
 11
0.0
 21
-7.5
  0
LINE
  8
3D_SICHTBARE_KANTEN
  6
CONTINUOUS
 62
40
 10
0.0
 20
-7.5
 11
0.0
 21
7.5
  0
LINE
  8
3D_SICHTBARE_KANTEN
  6
CONTINUOUS
 62
1
 10
0.0
 20
7.5
 11
0.0
 21
8.5
  0
LINE
  8
3D_SICHTBARE_KANTEN
  6
CONTINUOUS
 62
40
 10
0.0
 20
8.5
 11
0.0
 21
9.7
  0
POINT
  8
Drafting_Hidden_Entities
  6
CONTINUOUS
 62
1
 10
0.0
 20
0.0
  0
ENDBLK
  0
BLOCK
  2
TTZUNEW01
 10
0.0
 20
0.0
 70
0
  0
LINE
  8
2D_MITTELLINIEN
  6
CENTERLINE
 62
1
 10
1.5575498E+001
 20
0.0
 11
-2.95E+001
 21
0.0
  0
LINE
  8
2D_SICHTBARE_KANTEN
  6
CONTINUOUS
 62
40
 10
1.4E+001
 20
2.5
 11
0.0
 21
2.5
  0
LINE
  8
2D_SICHTBARE_KANTEN
  6
CONTINUOUS
 62
40
 10
1.4E+001
 20
-2.5
 11
0.0
 21
-2.5
  0
LINE
  8
2D_SICHTBARE_KANTEN
  6
CONTINUOUS
 62
40
 10
1.4E+001
 20
2.5
 11
1.4E+001
 21
-2.5
  0
LINE
  8
2D_SICHTBARE_KANTEN
  6
CONTINUOUS
 62
1
 10
1.4E+001
 20
2.0
 11
0.0
 21
2.0
  0
LINE
  8
2D_SICHTBARE_KANTEN
  6
CONTINUOUS
 62
1
 10
1.4E+001
 20
-2.0
 11
0.0
 21
-2.0
  0
ARC
  8
3D_SICHTBARE_KANTEN
  6
CONTINUOUS
 62
40
 10
-2.8E+001
 20
7.0
 40
3.0
 50
8.9999987E+001
 51
1.8000001E+002
  0
ARC
  8
3D_SICHTBARE_KANTEN
  6
CONTINUOUS
 62
40
 10
-2.8E+001
 20
-7.0
 40
3.0
 50
1.7999999E+002
 51
2.7000001E+002
  0
LINE
  8
3D_SICHTBARE_KANTEN
  6
CONTINUOUS
 62
40
 10
-2.8E+001
 20
-1.0E+001
 11
0.0
 21
-1.0E+001
  0
LINE
  8
3D_SICHTBARE_KANTEN
  6
CONTINUOUS
 62
40
 10
-3.1E+001
 20
7.0
 11
-3.1E+001
 21
-7.0
  0
LINE
  8
3D_SICHTBARE_KANTEN
  6
CONTINUOUS
 62
40
 10
0.0
 20
1.0E+001
 11
-2.8E+001
 21
1.0E+001
  0
LINE
  8
3D_SICHTBARE_KANTEN
  6
CONTINUOUS
 62
1
 10
-2.8E+001
 20
7.5
 11
0.0
 21
7.5
  0
ARC
  8
3D_SICHTBARE_KANTEN
  6
CONTINUOUS
 62
1
 10
-2.8E+001
 20
7.0
 40
5.0E-001
 50
9.0E+001
 51
1.8E+002
  0
LINE
  8
3D_SICHTBARE_KANTEN
  6
CONTINUOUS
 62
1
 10
-2.85E+001
 20
-7.0
 11
-2.85E+001
 21
7.0
  0
ARC
  8
3D_SICHTBARE_KANTEN
  6
CONTINUOUS
 62
1
 10
-2.8E+001
 20
-7.0
 40
5.0E-001
 50
1.8E+002
 51
2.7E+002
  0
LINE
  8
3D_SICHTBARE_KANTEN
  6
CONTINUOUS
 62
1
 10
0.0
 20
-7.5
 11
-2.8E+001
 21
-7.5
  0
LINE
  8
3D_SICHTBARE_KANTEN
  6
CONTINUOUS
 62
1
 10
-2.8E+001
 20
-8.5
 11
0.0
 21
-8.5
  0
ARC
  8
3D_SICHTBARE_KANTEN
  6
CONTINUOUS
 62
1
 10
-2.8E+001
 20
-7.0
 40
1.5
 50
1.8E+002
 51
2.7E+002
  0
LINE
  8
3D_SICHTBARE_KANTEN
  6
CONTINUOUS
 62
1
 10
-2.95E+001
 20
7.0
 11
-2.95E+001
 21
-7.0
  0
ARC
  8
3D_SICHTBARE_KANTEN
  6
CONTINUOUS
 62
1
 10
-2.8E+001
 20
7.0
 40
1.5
 50
9.0E+001
 51
1.8E+002
  0
LINE
  8
3D_SICHTBARE_KANTEN
  6
CONTINUOUS
 62
1
 10
0.0
 20
8.5
 11
-2.8E+001
 21
8.5
  0
LINE
  8
3D_SICHTBARE_KANTEN
  6
CONTINUOUS
 62
40
 10
0.0
 20
9.7
 11
0.0
 21
1.0E+001
  0
LINE
  8
3D_SICHTBARE_KANTEN
  6
CONTINUOUS
 62
40
 10
0.0
 20
-1.0E+001
 11
0.0
 21
-9.7
  0
LINE
  8
3D_SICHTBARE_KANTEN
  6
CONTINUOUS
 62
40
 10
0.0
 20
-9.7
 11
0.0
 21
-8.5
  0
LINE
  8
3D_SICHTBARE_KANTEN
  6
CONTINUOUS
 62
1
 10
0.0
 20
-8.5
 11
0.0
 21
-7.5
  0
LINE
  8
3D_SICHTBARE_KANTEN
  6
CONTINUOUS
 62
40
 10
0.0
 20
-7.5
 11
0.0
 21
7.5
  0
LINE
  8
3D_SICHTBARE_KANTEN
  6
CONTINUOUS
 62
1
 10
0.0
 20
7.5
 11
0.0
 21
8.5
  0
LINE
  8
3D_SICHTBARE_KANTEN
  6
CONTINUOUS
 62
40
 10
0.0
 20
8.5
 11
0.0
 21
9.7
  0
POINT
  8
Drafting_Hidden_Entities
  6
CONTINUOUS
 62
1
 10
0.0
 20
0.0
  0
ENDBLK
  0
BLOCK
  2
TTZUNEW02
 10
0.0
 20
0.0
 70
0
  0
ARC
  8
3D_SICHTBARE_KANTEN
  6
CONTINUOUS
 62
40
 10
2.8E+001
 20
7.0
 40
3.0
 50
3.5999999E+002
 51
4.5000001E+002
  0
ARC
  8
3D_SICHTBARE_KANTEN
  6
CONTINUOUS
 62
40
 10
2.8E+001
 20
-7.0
 40
3.0
 50
2.6999999E+002
 51
3.6000001E+002
  0
LINE
  8
3D_SICHTBARE_KANTEN
  6
CONTINUOUS
 62
40
 10
2.8E+001
 20
-1.0E+001
 11
0.0
 21
-1.0E+001
  0
LINE
  8
3D_SICHTBARE_KANTEN
  6
CONTINUOUS
 62
40
 10
3.1E+001
 20
7.0
 11
3.1E+001
 21
-7.0
  0
LINE
  8
3D_SICHTBARE_KANTEN
  6
CONTINUOUS
 62
40
 10
0.0
 20
1.0E+001
 11
2.8E+001
 21
1.0E+001
  0
LINE
  8
3D_SICHTBARE_KANTEN
  6
CONTINUOUS
 62
1
 10
2.8E+001
 20
7.5
 11
0.0
 21
7.5
  0
ARC
  8
3D_SICHTBARE_KANTEN
  6
CONTINUOUS
 62
1
 10
2.8E+001
 20
7.0
 40
5.0E-001
 50
0.0
 51
9.0E+001
  0
LINE
  8
3D_SICHTBARE_KANTEN
  6
CONTINUOUS
 62
1
 10
2.85E+001
 20
-7.0
 11
2.85E+001
 21
7.0
  0
ARC
  8
3D_SICHTBARE_KANTEN
  6
CONTINUOUS
 62
1
 10
2.8E+001
 20
-7.0
 40
5.0E-001
 50
2.7E+002
 51
3.6E+002
  0
LINE
  8
3D_SICHTBARE_KANTEN
  6
CONTINUOUS
 62
1
 10
0.0
 20
-7.5
 11
2.8E+001
 21
-7.5
  0
LINE
  8
3D_SICHTBARE_KANTEN
  6
CONTINUOUS
 62
1
 10
2.8E+001
 20
-8.5
 11
0.0
 21
-8.5
  0
ARC
  8
3D_SICHTBARE_KANTEN
  6
CONTINUOUS
 62
1
 10
2.8E+001
 20
-7.0
 40
1.5
 50
2.7E+002
 51
3.6E+002
  0
LINE
  8
3D_SICHTBARE_KANTEN
  6
CONTINUOUS
 62
1
 10
2.95E+001
 20
7.0
 11
2.95E+001
 21
-7.0
  0
ARC
  8
3D_SICHTBARE_KANTEN
  6
CONTINUOUS
 62
1
 10
2.8E+001
 20
7.0
 40
1.5
 50
0.0
 51
9.0E+001
  0
LINE
  8
3D_SICHTBARE_KANTEN
  6
CONTINUOUS
 62
1
 10
0.0
 20
8.5
 11
2.8E+001
 21
8.5
  0
LINE
  8
3D_SICHTBARE_KANTEN
  6
CONTINUOUS
 62
40
 10
0.0
 20
9.7
 11
0.0
 21
1.0E+001
  0
LINE
  8
3D_SICHTBARE_KANTEN
  6
CONTINUOUS
 62
40
 10
0.0
 20
-1.0E+001
 11
0.0
 21
-9.7
  0
LINE
  8
3D_SICHTBARE_KANTEN
  6
CONTINUOUS
 62
40
 10
0.0
 20
-9.7
 11
0.0
 21
-8.5
  0
LINE
  8
3D_SICHTBARE_KANTEN
  6
CONTINUOUS
 62
1
 10
0.0
 20
-8.5
 11
0.0
 21
-7.5
  0
LINE
  8
3D_SICHTBARE_KANTEN
  6
CONTINUOUS
 62
40
 10
0.0
 20
-7.5
 11
0.0
 21
7.5
  0
LINE
  8
3D_SICHTBARE_KANTEN
  6
CONTINUOUS
 62
1
 10
0.0
 20
7.5
 11
0.0
 21
8.5
  0
LINE
  8
3D_SICHTBARE_KANTEN
  6
CONTINUOUS
 62
40
 10
0.0
 20
8.5
 11
0.0
 21
9.7
  0
POINT
  8
Drafting_Hidden_Entities
  6
CONTINUOUS
 62
1
 10
0.0
 20
0.0
  0
ENDBLK
  0
BLOCK
  2
WNEW00
 10
0.0
 20
0.0
 70
0
  0
LINE
  8
2D_BEMASSUNG
  6
CENTERLINE
 62
150
 10
0.0
 20
-1.35E+001
 11
0.0
 21
-8.5
  0
LINE
  8
2D_BEMASSUNG
  6
CENTERLINE
 62
150
 10
-1.4237E-006
 20
-2.9500011E+001
 11
-1.4237E-006
 21
-2.4500011E+001
  0
LINE
  8
2D_SICHTBARE_KANTEN
  6
CONTINUOUS
 62
40
 10
-1.7000001E+001
 20
3.5499949E+001
 11
-1.7000001E+001
 21
2.725E+001
  0
LINE
  8
2D_SICHTBARE_KANTEN
  6
CONTINUOUS
 62
40
 10
-3.9000005E+001
 20
2.725E+001
 11
-3.9000005E+001
 21
4.0499965E+001
  0
LINE
  8
2D_SICHTBARE_KANTEN
  6
CONTINUOUS
 62
40
 10
-3.9000005E+001
 20
4.0499965E+001
 11
-2.0475042E+001
 21
4.0499965E+001
  0
LINE
  8
2D_SICHTBARE_KANTEN
  6
CONTINUOUS
 62
40
 10
-3.9000005E+001
 20
3.5499949E+001
 11
-2.0554217E+001
 21
3.5499949E+001
  0
LINE
  8
2D_SICHTBARE_KANTEN
  6
CONTINUOUS
 62
40
 10
-1.7000001E+001
 20
3.5499958E+001
 11
-1.7000001E+001
 21
2.7249989E+001
  0
LINE
  8
2D_VERDECKTE_KANTEN
  6
HIDDEN
 62
1
 10
-1.4237E-006
 20
-2.7500418
 11
-1.4237E-006
 21
2.4999958E+001
  0
ARC
  8
2D_VERDECKTE_KANTEN
  6
HIDDEN
 62
1
 10
-4.9998302E-001
 20
2.4999977E+001
 40
4.999816E-001
 50
3.5999789E+002
 51
4.5000211E+002
  0
LINE
  8
2D_VERDECKTE_KANTEN
  6
HIDDEN
 62
1
 10
-5.0000142E-001
 20
2.5499958E+001
 11
-2.0928969
 21
2.5499958E+001
  0
ARC
  8
2D_VERDECKTE_KANTEN
  6
HIDDEN
 62
1
 10
-2.0928575
 20
2.5999982E+001
 40
5.0002333E-001
 50
2.2500241E+002
 51
2.6999548E+002
  0
LINE
  8
2D_VERDECKTE_KANTEN
  6
HIDDEN
 62
1
 10
-2.4464126
 20
2.5646397E+001
 11
-3.1535659
 21
2.6353504E+001
  0
ARC
  8
2D_VERDECKTE_KANTEN
  6
HIDDEN
 62
1
 10
-3.5070699
 20
2.6000095E+001
 40
4.998634E-001
 50
4.499234E+001
 51
9.0001327E+001
  0
LINE
  8
2D_VERDECKTE_KANTEN
  6
HIDDEN
 62
1
 10
-3.5070815
 20
2.6499958E+001
 11
-3.6928725
 21
2.6499958E+001
  0
ARC
  8
2D_VERDECKTE_KANTEN
  6
HIDDEN
 62
1
 10
-3.6929471
 20
2.60001E+001
 40
4.9985856E-001
 50
8.9991448E+001
 51
1.3500789E+002
  0
LINE
  8
2D_VERDECKTE_KANTEN
  6
HIDDEN
 62
1
 10
-4.0464492
 20
2.6353504E+001
 11
-4.853517
 21
2.5546421E+001
  0
ARC
  8
2D_VERDECKTE_KANTEN
  6
HIDDEN
 62
1
 10
-4.5001513
 20
2.5192892E+001
 40
4.9985012E-001
 50
1.3498676E+002
 51
1.8000371E+002
  0
LINE
  8
2D_VERDECKTE_KANTEN
  6
HIDDEN
 62
1
 10
-5.0000014
 20
2.519286E+001
 11
-5.0000014
 21
-3.0692943E+001
  0
ARC
  8
2D_VERDECKTE_KANTEN
  6
HIDDEN
 62
1
 10
-4.500042
 20
-3.069293E+001
 40
4.9995942E-001
 50
1.8000148E+002
 51
2.2500805E+002
  0
LINE
  8
2D_VERDECKTE_KANTEN
  6
HIDDEN
 62
1
 10
-4.853517
 20
-3.1046505E+001
 11
-4.0464492
 21
-3.1853588E+001
  0
ARC
  8
2D_VERDECKTE_KANTEN
  6
HIDDEN
 62
1
 10
-3.6928717
 20
-3.1500001E+001
 40
5.0004068E-001
 50
2.2500076E+002
 51
2.6999991E+002
  0
LINE
  8
2D_VERDECKTE_KANTEN
  6
HIDDEN
 62
1
 10
-3.6928725
 20
-3.2000042E+001
 11
-3.5070815
 21
-3.2000042E+001
  0
ARC
  8
2D_VERDECKTE_KANTEN
  6
HIDDEN
 62
1
 10
-3.5070975
 20
-3.1500112E+001
 40
4.9992995E-001
 50
2.7000183E+002
 51
3.150045E+002
  0
LINE
  8
2D_VERDECKTE_KANTEN
  6
HIDDEN
 62
1
 10
-3.1535659
 20
-3.1853588E+001
 11
-2.4464126
 21
-3.114648E+001
  0
ARC
  8
2D_VERDECKTE_KANTEN
  6
HIDDEN
 62
1
 10
-2.0928675
 20
-3.1500041E+001
 40
4.9999931E-001
 50
9.0003377E+001
 51
1.3499873E+002
  0
LINE
  8
2D_VERDECKTE_KANTEN
  6
HIDDEN
 62
1
 10
-2.0928969
 20
-3.1000042E+001
 11
-5.0000142E-001
 21
-3.1000042E+001
  0
ARC
  8
2D_VERDECKTE_KANTEN
  6
HIDDEN
 62
1
 10
-5.0000048E-001
 20
-3.0500043E+001
 40
4.9999906E-001
 50
2.6999989E+002
 51
3.6000011E+002
  0
LINE
  8
2D_VERDECKTE_KANTEN
  6
HIDDEN
 62
1
 10
-1.4237E-006
 20
-3.0500042E+001
 11
-1.4237E-006
 21
-2.7500418
  0
LINE
  8
2D_MITTELLINIEN
  6
CENTERLINE
 62
1
 10
-6.0678143
 20
1.6E+001
 11
2.9508057
 21
1.6E+001
  0
LINE
  8
2D_MITTELLINIEN
  6
CENTERLINE
 62
1
 10
-6.0678143
 20
0.0
 11
2.7622681
 21
0.0
  0
LINE
  8
2D_MITTELLINIEN
  6
CENTERLINE
 62
1
 10
-6.0678143
 20
-1.1E+001
 11
2.333313
 21
-1.1E+001
  0
LINE
  8
2D_MITTELLINIEN
  6
CENTERLINE
 62
1
 10
-6.0678774
 20
-2.7000002E+001
 11
2.7207031
 21
-2.7000015E+001
  0
LINE
  8
2D_VERDECKTE_KANTEN
  6
HIDDEN
 62
1
 10
-5.0
 20
-2.1500015E+001
 11
-2.0
 21
-2.4500015E+001
  0
LINE
  8
2D_VERDECKTE_KANTEN
  6
HIDDEN
 62
1
 10
-2.0
 20
-2.4500015E+001
 11
-2.0
 21
-2.9500015E+001
  0
LINE
  8
2D_VERDECKTE_KANTEN
  6
HIDDEN
 62
1
 10
-2.0
 20
-2.9500015E+001
 11
-4.1999512
 21
-3.1700027E+001
  0
LINE
  8
2D_VERDECKTE_KANTEN
  6
HIDDEN
 62
1
 10
-5.0
 20
-5.5
 11
-2.0
 21
-8.5
  0
LINE
  8
2D_VERDECKTE_KANTEN
  6
HIDDEN
 62
1
 10
-2.0
 20
-8.5
 11
-2.0
 21
-1.35E+001
  0
LINE
  8
2D_VERDECKTE_KANTEN
  6
HIDDEN
 62
1
 10
-2.0
 20
-1.35E+001
 11
-5.0
 21
-1.65E+001
  0
LINE
  8
2D_VERDECKTE_KANTEN
  6
HIDDEN
 62
1
 10
-2.0
 20
-1.35E+001
 11
0.0
 21
-1.35E+001
  0
LINE
  8
2D_VERDECKTE_KANTEN
  6
HIDDEN
 62
1
 10
0.0
 20
-8.5
 11
-2.0
 21
-8.5
  0
LINE
  8
2D_VERDECKTE_KANTEN
  6
HIDDEN
 62
1
 10
-2.0
 20
-2.45E+001
 11
0.0
 21
-2.45E+001
  0
LINE
  8
2D_VERDECKTE_KANTEN
  6
HIDDEN
 62
1
 10
0.0
 20
-2.95E+001
 11
-2.0
 21
-2.95E+001
  0
LINE
  8
2D_VERDECKTE_KANTEN
  6
HIDDEN
 62
1
 10
-5.0
 20
2.15E+001
 11
-2.0
 21
1.85E+001
  0
LINE
  8
2D_VERDECKTE_KANTEN
  6
HIDDEN
 62
1
 10
-2.0
 20
1.85E+001
 11
-2.0
 21
1.35E+001
  0
LINE
  8
2D_VERDECKTE_KANTEN
  6
HIDDEN
 62
1
 10
-2.0
 20
1.35E+001
 11
-5.0
 21
1.05E+001
  0
LINE
  8
2D_VERDECKTE_KANTEN
  6
HIDDEN
 62
1
 10
-2.0
 20
1.85E+001
 11
0.0
 21
1.85E+001
  0
LINE
  8
2D_VERDECKTE_KANTEN
  6
HIDDEN
 62
1
 10
0.0
 20
1.35E+001
 11
-2.0
 21
1.35E+001
  0
LINE
  8
2D_VERDECKTE_KANTEN
  6
HIDDEN
 62
1
 10
-5.0
 20
5.5
 11
-2.0
 21
2.5
  0
LINE
  8
2D_VERDECKTE_KANTEN
  6
HIDDEN
 62
1
 10
-2.0
 20
2.5
 11
-2.0
 21
-2.5
  0
LINE
  8
2D_VERDECKTE_KANTEN
  6
HIDDEN
 62
1
 10
-2.0
 20
-2.5
 11
-5.0
 21
-5.5
  0
LINE
  8
2D_VERDECKTE_KANTEN
  6
HIDDEN
 62
1
 10
-2.0
 20
2.5
 11
0.0
 21
2.5
  0
LINE
  8
2D_VERDECKTE_KANTEN
  6
HIDDEN
 62
1
 10
0.0
 20
-2.5
 11
-2.0
 21
-2.5
  0
LINE
  8
2D_SICHTBARE_KANTEN
  6
CONTINUOUS
 62
40
 10
0.0
 20
-3.2750015E+001
 11
0.0
 21
2.725E+001
  0
LINE
  8
2D_SICHTBARE_KANTEN
  6
CONTINUOUS
 62
40
 10
0.0
 20
2.725E+001
 11
-4.9963135E+001
 21
2.725E+001
  0
ARC
  8
2D_SICHTBARE_KANTEN
  6
CONTINUOUS
 62
40
 10
-4.9963122E+001
 20
2.4249987E+001
 40
3.0000131
 50
9.0000238E+001
 51
1.7996303E+002
  0
LINE
  8
2D_SICHTBARE_KANTEN
  6
CONTINUOUS
 62
40
 10
-5.2963135E+001
 20
2.4251923E+001
 11
-5.2998047E+001
 21
-2.9748077E+001
  0
ARC
  8
2D_SICHTBARE_KANTEN
  6
CONTINUOUS
 62
40
 10
-4.999804E+001
 20
-2.9750023E+001
 40
3.0000076
 50
1.7996284E+002
 51
2.6999987E+002
  0
LINE
  8
2D_SICHTBARE_KANTEN
  6
CONTINUOUS
 62
40
 10
-4.9998047E+001
 20
-3.2750031E+001
 11
0.0
 21
-3.2750015E+001
  0
LINE
  8
2D_SICHTBARE_KANTEN
  6
CONTINUOUS
 62
40
 10
-2.0475042E+001
 20
4.0499965E+001
 11
-4.5000014
 21
4.0499965E+001
  0
LINE
  8
2D_SICHTBARE_KANTEN
  6
CONTINUOUS
 62
40
 10
-4.5000014
 20
4.0499965E+001
 11
-4.5000014
 21
3.5499949E+001
  0
LINE
  8
2D_SICHTBARE_KANTEN
  6
CONTINUOUS
 62
40
 10
-4.5000014
 20
3.5499949E+001
 11
-2.0554217E+001
 21
3.5499949E+001
  0
LINE
  8
2D_BEMASSUNG
  6
CENTERLINE
 62
150
 10
-1.4237E-006
 20
5.65E+001
 11
-1.4237E-006
 21
5.15E+001
  0
LINE
  8
2D_MITTELLINIEN
  6
CENTERLINE
 62
1
 10
2.5597487
 20
5.4E+001
 11
-2.9500001E+001
 21
5.4E+001
  0
LINE
  8
2D_SICHTBARE_KANTEN
  6
CONTINUOUS
 62
40
 10
-7.0000663
 20
4.4E+001
 11
-7.0000663
 21
4.1999949E+001
  0
LINE
  8
2D_SICHTBARE_KANTEN
  6
CONTINUOUS
 62
40
 10
-7.0000663
 20
4.1999949E+001
 11
-2.4000066E+001
 21
4.1999949E+001
  0
LINE
  8
2D_SICHTBARE_KANTEN
  6
CONTINUOUS
 62
40
 10
-2.4000066E+001
 20
4.1999949E+001
 11
-2.4000066E+001
 21
4.4E+001
  0
LINE
  8
2D_SICHTBARE_KANTEN
  6
CONTINUOUS
 62
40
 10
-2.0475042E+001
 20
4.1450012E+001
 11
-2.0475042E+001
 21
4.1999949E+001
  0
LINE
  8
2D_SICHTBARE_KANTEN
  6
CONTINUOUS
 62
40
 10
-2.0475042E+001
 20
4.1999949E+001
 11
-2.0475042E+001
 21
4.0499965E+001
  0
LINE
  8
2D_SICHTBARE_KANTEN
  6
CONTINUOUS
 62
40
 10
-1.0524969E+001
 20
4.1450012E+001
 11
-1.0524969E+001
 21
4.1999949E+001
  0
LINE
  8
2D_SICHTBARE_KANTEN
  6
CONTINUOUS
 62
40
 10
-1.0524969E+001
 20
4.1999949E+001
 11
-1.0525017E+001
 21
4.0499965E+001
  0
INSERT
  2
TTZUNEW02
  8
2D_SYMBOLE
 10
-1.4237E-006
 20
5.4E+001
 41
1.0
 43
1.0
 42
-1.0
 50
1.8E+002
  0
CIRCLE
  8
3D_SICHTBARE_KANTEN
  6
CONTINUOUS
 62
40
 10
-3.3E+001
 20
-1.1248077E+001
 40
1.5
  0
CIRCLE
  8
3D_SICHTBARE_KANTEN
  6
CONTINUOUS
 62
40
 10
-7.5
 20
1.4251923E+001
 40
1.5
  0
CIRCLE
  8
3D_SICHTBARE_KANTEN
  6
CONTINUOUS
 62
40
 10
-1.6E+001
 20
1.4251923E+001
 40
1.5
  0
CIRCLE
  8
3D_SICHTBARE_KANTEN
  6
CONTINUOUS
 62
40
 10
-2.45E+001
 20
1.4251923E+001
 40
1.5
  0
CIRCLE
  8
3D_SICHTBARE_KANTEN
  6
CONTINUOUS
 62
40
 10
-3.3E+001
 20
1.4251923E+001
 40
1.5
  0
CIRCLE
  8
3D_SICHTBARE_KANTEN
  6
CONTINUOUS
 62
40
 10
-4.15E+001
 20
1.4251923E+001
 40
1.5
  0
CIRCLE
  8
3D_SICHTBARE_KANTEN
  6
CONTINUOUS
 62
40
 10
-7.5
 20
5.7519226
 40
1.5
  0
CIRCLE
  8
3D_SICHTBARE_KANTEN
  6
CONTINUOUS
 62
40
 10
-1.6E+001
 20
5.7519226
 40
1.5
  0
CIRCLE
  8
3D_SICHTBARE_KANTEN
  6
CONTINUOUS
 62
40
 10
-2.45E+001
 20
5.7519226
 40
1.5
  0
CIRCLE
  8
3D_SICHTBARE_KANTEN
  6
CONTINUOUS
 62
40
 10
-3.3E+001
 20
5.7519226
 40
1.5
  0
CIRCLE
  8
3D_SICHTBARE_KANTEN
  6
CONTINUOUS
 62
40
 10
-4.15E+001
 20
5.7519226
 40
1.5
  0
CIRCLE
  8
3D_SICHTBARE_KANTEN
  6
CONTINUOUS
 62
40
 10
-7.5
 20
-2.7480774
 40
1.5
  0
CIRCLE
  8
3D_SICHTBARE_KANTEN
  6
CONTINUOUS
 62
40
 10
-1.6E+001
 20
-2.7480774
 40
1.5
  0
CIRCLE
  8
3D_SICHTBARE_KANTEN
  6
CONTINUOUS
 62
40
 10
-2.45E+001
 20
-2.7480774
 40
1.5
  0
CIRCLE
  8
3D_SICHTBARE_KANTEN
  6
CONTINUOUS
 62
40
 10
-3.3E+001
 20
-2.7480774
 40
1.5
  0
CIRCLE
  8
3D_SICHTBARE_KANTEN
  6
CONTINUOUS
 62
40
 10
-4.15E+001
 20
-2.7480774
 40
1.5
  0
CIRCLE
  8
3D_SICHTBARE_KANTEN
  6
CONTINUOUS
 62
40
 10
-7.5
 20
-1.1248077E+001
 40
1.5
  0
CIRCLE
  8
3D_SICHTBARE_KANTEN
  6
CONTINUOUS
 62
40
 10
-1.6E+001
 20
-1.1248077E+001
 40
1.5
  0
CIRCLE
  8
3D_SICHTBARE_KANTEN
  6
CONTINUOUS
 62
40
 10
-2.45E+001
 20
-1.1248077E+001
 40
1.5
  0
CIRCLE
  8
3D_SICHTBARE_KANTEN
  6
CONTINUOUS
 62
40
 10
-4.15E+001
 20
-1.1248077E+001
 40
1.5
  0
CIRCLE
  8
3D_SICHTBARE_KANTEN
  6
CONTINUOUS
 62
40
 10
-7.5
 20
-1.9748077E+001
 40
1.5
  0
CIRCLE
  8
3D_SICHTBARE_KANTEN
  6
CONTINUOUS
 62
40
 10
-1.6E+001
 20
-1.9748077E+001
 40
1.5
  0
CIRCLE
  8
3D_SICHTBARE_KANTEN
  6
CONTINUOUS
 62
40
 10
-2.45E+001
 20
-1.9748077E+001
 40
1.5
  0
CIRCLE
  8
3D_SICHTBARE_KANTEN
  6
CONTINUOUS
 62
40
 10
-3.3E+001
 20
-1.9748077E+001
 40
1.5
  0
CIRCLE
  8
3D_SICHTBARE_KANTEN
  6
CONTINUOUS
 62
40
 10
-4.15E+001
 20
-1.9748077E+001
 40
1.5
  0
LINE
  8
3D_SICHTBARE_KANTEN
  6
CONTINUOUS
 62
40
 10
-2.3670844E+001
 20
-2.0998077E+001
 11
-2.3714406E+001
 21
-2.0998077E+001
  0
ARC
  8
3D_SICHTBARE_KANTEN
  6
CONTINUOUS
 62
40
 10
-2.9E+001
 20
-2.7480774
 40
1.9E+001
 50
2.8614127E+002
 51
2.8615216E+002
  0
POINT
  8
Drafting_Hidden_Entities
  6
CONTINUOUS
 62
1
 10
0.0
 20
0.0
  0
ENDBLK
  0
BLOCK
  2
ZZUI
 10
0.0
 20
0.0
 70
0
  0
INSERT
  2
TTZUNEW01
  8
2D_SYMBOLE
 10
-1.5E+001
 20
2.14E+002
  0
LINE
  8
2D_BEMASSUNG
  6
CENTERLINE
 62
150
 10
0.0
 20
1.465E+002
 11
0.0
 21
1.515E+002
  0
LINE
  8
2D_BEMASSUNG
  6
CENTERLINE
 62
150
 10
-1.4237E-006
 20
1.3049999E+002
 11
-1.4237E-006
 21
1.3549999E+002
  0
LINE
  8
2D_SICHTBARE_KANTEN
  6
CONTINUOUS
 62
40
 10
-1.7000001E+001
 20
1.9549995E+002
 11
-1.7000001E+001
 21
1.8725E+002
  0
LINE
  8
2D_SICHTBARE_KANTEN
  6
CONTINUOUS
 62
40
 10
-3.9000005E+001
 20
1.8725E+002
 11
-3.9000005E+001
 21
1.9549995E+002
  0
LINE
  8
2D_SICHTBARE_KANTEN
  6
CONTINUOUS
 62
40
 10
-4.1500066E+001
 20
2.0049996E+002
 11
-1.7000001E+001
 21
2.0049996E+002
  0
LINE
  8
2D_SICHTBARE_KANTEN
  6
CONTINUOUS
 62
40
 10
-4.1500066E+001
 20
1.9549995E+002
 11
-2.0554217E+001
 21
1.9549995E+002
  0
LINE
  8
2D_SICHTBARE_KANTEN
  6
CONTINUOUS
 62
40
 10
-1.7000001E+001
 20
2.0049996E+002
 11
-1.7000001E+001
 21
1.8724999E+002
  0
LINE
  8
2D_VERDECKTE_KANTEN
  6
HIDDEN
 62
1
 10
-1.4237E-006
 20
1.5724996E+002
 11
-1.4237E-006
 21
1.8499996E+002
  0
ARC
  8
2D_VERDECKTE_KANTEN
  6
HIDDEN
 62
1
 10
-4.9998302E-001
 20
1.8499998E+002
 40
4.999816E-001
 50
3.5999789E+002
 51
4.5000211E+002
  0
LINE
  8
2D_VERDECKTE_KANTEN
  6
HIDDEN
 62
1
 10
-5.0000142E-001
 20
1.8549996E+002
 11
-2.0928969
 21
1.8549996E+002
  0
ARC
  8
2D_VERDECKTE_KANTEN
  6
HIDDEN
 62
1
 10
-2.0928575
 20
1.8599998E+002
 40
5.0002333E-001
 50
2.2500241E+002
 51
2.6999548E+002
  0
LINE
  8
2D_VERDECKTE_KANTEN
  6
HIDDEN
 62
1
 10
-2.4464126
 20
1.856464E+002
 11
-3.1535659
 21
1.863535E+002
  0
ARC
  8
2D_VERDECKTE_KANTEN
  6
HIDDEN
 62
1
 10
-3.5070699
 20
1.8600009E+002
 40
4.998634E-001
 50
4.499234E+001
 51
9.0001327E+001
  0
LINE
  8
2D_VERDECKTE_KANTEN
  6
HIDDEN
 62
1
 10
-3.5070815
 20
1.8649996E+002
 11
-3.6928725
 21
1.8649996E+002
  0
ARC
  8
2D_VERDECKTE_KANTEN
  6
HIDDEN
 62
1
 10
-3.6929471
 20
1.860001E+002
 40
4.9985856E-001
 50
8.9991448E+001
 51
1.3500789E+002
  0
LINE
  8
2D_VERDECKTE_KANTEN
  6
HIDDEN
 62
1
 10
-4.0464492
 20
1.863535E+002
 11
-4.853517
 21
1.8554642E+002
  0
ARC
  8
2D_VERDECKTE_KANTEN
  6
HIDDEN
 62
1
 10
-4.5001513
 20
1.8519289E+002
 40
4.9985012E-001
 50
1.3498676E+002
 51
1.8000371E+002
  0
LINE
  8
2D_VERDECKTE_KANTEN
  6
HIDDEN
 62
1
 10
-5.0000014
 20
1.8519286E+002
 11
-5.0000014
 21
1.2930706E+002
  0
ARC
  8
2D_VERDECKTE_KANTEN
  6
HIDDEN
 62
1
 10
-4.500042
 20
1.2930707E+002
 40
4.9995942E-001
 50
1.8000148E+002
 51
2.2500805E+002
  0
LINE
  8
2D_VERDECKTE_KANTEN
  6
HIDDEN
 62
1
 10
-4.853517
 20
1.289535E+002
 11
-4.0464492
 21
1.2814641E+002
  0
ARC
  8
2D_VERDECKTE_KANTEN
  6
HIDDEN
 62
1
 10
-3.6928717
 20
1.285E+002
 40
5.0004068E-001
 50
2.2500076E+002
 51
2.6999991E+002
  0
LINE
  8
2D_VERDECKTE_KANTEN
  6
HIDDEN
 62
1
 10
-3.6928725
 20
1.2799996E+002
 11
-3.5070815
 21
1.2799996E+002
  0
ARC
  8
2D_VERDECKTE_KANTEN
  6
HIDDEN
 62
1
 10
-3.5070975
 20
1.2849989E+002
 40
4.9992995E-001
 50
2.7000183E+002
 51
3.150045E+002
  0
LINE
  8
2D_VERDECKTE_KANTEN
  6
HIDDEN
 62
1
 10
-3.1535659
 20
1.2814641E+002
 11
-2.4464126
 21
1.2885352E+002
  0
ARC
  8
2D_VERDECKTE_KANTEN
  6
HIDDEN
 62
1
 10
-2.0928675
 20
1.2849996E+002
 40
4.9999931E-001
 50
9.0003377E+001
 51
1.3499873E+002
  0
LINE
  8
2D_VERDECKTE_KANTEN
  6
HIDDEN
 62
1
 10
-2.0928969
 20
1.2899996E+002
 11
-5.0000142E-001
 21
1.2899996E+002
  0
ARC
  8
2D_VERDECKTE_KANTEN
  6
HIDDEN
 62
1
 10
-5.0000048E-001
 20
1.2949996E+002
 40
4.9999906E-001
 50
2.6999989E+002
 51
3.6000011E+002
  0
LINE
  8
2D_VERDECKTE_KANTEN
  6
HIDDEN
 62
1
 10
-1.4237E-006
 20
1.2949996E+002
 11
-1.4237E-006
 21
1.5724996E+002
  0
LINE
  8
2D_MITTELLINIEN
  6
CENTERLINE
 62
1
 10
-6.0678143
 20
1.76E+002
 11
2.9508057
 21
1.76E+002
  0
LINE
  8
2D_MITTELLINIEN
  6
CENTERLINE
 62
1
 10
-6.0678143
 20
1.6E+002
 11
2.7622681
 21
1.6E+002
  0
LINE
  8
2D_MITTELLINIEN
  6
CENTERLINE
 62
1
 10
-6.0678143
 20
1.49E+002
 11
2.333313
 21
1.49E+002
  0
LINE
  8
2D_MITTELLINIEN
  6
CENTERLINE
 62
1
 10
-6.0678774
 20
1.33E+002
 11
2.7207031
 21
1.3299998E+002
  0
LINE
  8
2D_VERDECKTE_KANTEN
  6
HIDDEN
 62
1
 10
-5.0
 20
1.3849998E+002
 11
-2.0
 21
1.3549998E+002
  0
LINE
  8
2D_VERDECKTE_KANTEN
  6
HIDDEN
 62
1
 10
-2.0
 20
1.3549998E+002
 11
-2.0
 21
1.3049998E+002
  0
LINE
  8
2D_VERDECKTE_KANTEN
  6
HIDDEN
 62
1
 10
-2.0
 20
1.3049998E+002
 11
-4.1999512
 21
1.2829997E+002
  0
LINE
  8
2D_VERDECKTE_KANTEN
  6
HIDDEN
 62
1
 10
-5.0
 20
1.545E+002
 11
-2.0
 21
1.515E+002
  0
LINE
  8
2D_VERDECKTE_KANTEN
  6
HIDDEN
 62
1
 10
-2.0
 20
1.515E+002
 11
-2.0
 21
1.465E+002
  0
LINE
  8
2D_VERDECKTE_KANTEN
  6
HIDDEN
 62
1
 10
-2.0
 20
1.465E+002
 11
-5.0
 21
1.435E+002
  0
LINE
  8
2D_VERDECKTE_KANTEN
  6
HIDDEN
 62
1
 10
-2.0
 20
1.465E+002
 11
0.0
 21
1.465E+002
  0
LINE
  8
2D_VERDECKTE_KANTEN
  6
HIDDEN
 62
1
 10
0.0
 20
1.515E+002
 11
-2.0
 21
1.515E+002
  0
LINE
  8
2D_VERDECKTE_KANTEN
  6
HIDDEN
 62
1
 10
-2.0
 20
1.355E+002
 11
0.0
 21
1.355E+002
  0
LINE
  8
2D_VERDECKTE_KANTEN
  6
HIDDEN
 62
1
 10
0.0
 20
1.305E+002
 11
-2.0
 21
1.305E+002
  0
LINE
  8
2D_VERDECKTE_KANTEN
  6
HIDDEN
 62
1
 10
-5.0
 20
1.815E+002
 11
-2.0
 21
1.785E+002
  0
LINE
  8
2D_VERDECKTE_KANTEN
  6
HIDDEN
 62
1
 10
-2.0
 20
1.785E+002
 11
-2.0
 21
1.735E+002
  0
LINE
  8
2D_VERDECKTE_KANTEN
  6
HIDDEN
 62
1
 10
-2.0
 20
1.735E+002
 11
-5.0
 21
1.705E+002
  0
LINE
  8
2D_VERDECKTE_KANTEN
  6
HIDDEN
 62
1
 10
-2.0
 20
1.785E+002
 11
0.0
 21
1.785E+002
  0
LINE
  8
2D_VERDECKTE_KANTEN
  6
HIDDEN
 62
1
 10
0.0
 20
1.735E+002
 11
-2.0
 21
1.735E+002
  0
LINE
  8
2D_VERDECKTE_KANTEN
  6
HIDDEN
 62
1
 10
-5.0
 20
1.655E+002
 11
-2.0
 21
1.625E+002
  0
LINE
  8
2D_VERDECKTE_KANTEN
  6
HIDDEN
 62
1
 10
-2.0
 20
1.625E+002
 11
-2.0
 21
1.575E+002
  0
LINE
  8
2D_VERDECKTE_KANTEN
  6
HIDDEN
 62
1
 10
-2.0
 20
1.575E+002
 11
-5.0
 21
1.545E+002
  0
LINE
  8
2D_VERDECKTE_KANTEN
  6
HIDDEN
 62
1
 10
-2.0
 20
1.625E+002
 11
0.0
 21
1.625E+002
  0
LINE
  8
2D_VERDECKTE_KANTEN
  6
HIDDEN
 62
1
 10
0.0
 20
1.575E+002
 11
-2.0
 21
1.575E+002
  0
LINE
  8
2D_SICHTBARE_KANTEN
  6
CONTINUOUS
 62
40
 10
0.0
 20
1.2724998E+002
 11
0.0
 21
1.8725E+002
  0
LINE
  8
2D_SICHTBARE_KANTEN
  6
CONTINUOUS
 62
40
 10
0.0
 20
1.8725E+002
 11
-4.9963135E+001
 21
1.8725E+002
  0
ARC
  8
2D_SICHTBARE_KANTEN
  6
CONTINUOUS
 62
40
 10
-4.9963122E+001
 20
1.8424999E+002
 40
3.0000131
 50
9.0000238E+001
 51
1.7996303E+002
  0
LINE
  8
2D_SICHTBARE_KANTEN
  6
CONTINUOUS
 62
40
 10
-5.2963135E+001
 20
1.8425192E+002
 11
-5.2998047E+001
 21
1.3025192E+002
  0
ARC
  8
2D_SICHTBARE_KANTEN
  6
CONTINUOUS
 62
40
 10
-4.999804E+001
 20
1.3024998E+002
 40
3.0000076
 50
1.7996284E+002
 51
2.6999987E+002
  0
LINE
  8
2D_SICHTBARE_KANTEN
  6
CONTINUOUS
 62
40
 10
-4.9998047E+001
 20
1.2724997E+002
 11
0.0
 21
1.2724998E+002
  0
LINE
  8
2D_SICHTBARE_KANTEN
  6
CONTINUOUS
 62
40
 10
-1.7000001E+001
 20
1.9549995E+002
 11
-2.0554217E+001
 21
1.9549995E+002
  0
LINE
  8
2D_BEMASSUNG
  6
CENTERLINE
 62
150
 10
-1.4237E-006
 20
2.165E+002
 11
-1.4237E-006
 21
2.115E+002
  0
LINE
  8
2D_MITTELLINIEN
  6
CENTERLINE
 62
1
 10
2.5597487
 20
2.14E+002
 11
-2.9500001E+001
 21
2.14E+002
  0
LINE
  8
2D_SICHTBARE_KANTEN
  6
CONTINUOUS
 62
40
 10
-2.2000066E+001
 20
2.04E+002
 11
-2.2000066E+001
 21
2.0199995E+002
  0
LINE
  8
2D_SICHTBARE_KANTEN
  6
CONTINUOUS
 62
40
 10
-2.2000066E+001
 20
2.0199995E+002
 11
-3.9000066E+001
 21
2.0199995E+002
  0
LINE
  8
2D_SICHTBARE_KANTEN
  6
CONTINUOUS
 62
40
 10
-3.9000066E+001
 20
2.0199995E+002
 11
-3.9000066E+001
 21
2.04E+002
  0
LINE
  8
2D_SICHTBARE_KANTEN
  6
CONTINUOUS
 62
40
 10
-3.5475042E+001
 20
2.0145001E+002
 11
-3.5475042E+001
 21
2.0199995E+002
  0
LINE
  8
2D_SICHTBARE_KANTEN
  6
CONTINUOUS
 62
40
 10
-3.5475042E+001
 20
2.0199995E+002
 11
-3.5475042E+001
 21
2.0049996E+002
  0
LINE
  8
2D_SICHTBARE_KANTEN
  6
CONTINUOUS
 62
40
 10
-2.5524969E+001
 20
2.0145001E+002
 11
-2.5524969E+001
 21
2.0199995E+002
  0
LINE
  8
2D_SICHTBARE_KANTEN
  6
CONTINUOUS
 62
40
 10
-2.5524969E+001
 20
2.0199995E+002
 11
-2.5525017E+001
 21
2.0049996E+002
  0
CIRCLE
  8
3D_SICHTBARE_KANTEN
  6
CONTINUOUS
 62
40
 10
-3.3E+001
 20
1.4875192E+002
 40
1.5
  0
CIRCLE
  8
3D_SICHTBARE_KANTEN
  6
CONTINUOUS
 62
40
 10
-7.5
 20
1.7425192E+002
 40
1.5
  0
CIRCLE
  8
3D_SICHTBARE_KANTEN
  6
CONTINUOUS
 62
40
 10
-1.6E+001
 20
1.7425192E+002
 40
1.5
  0
CIRCLE
  8
3D_SICHTBARE_KANTEN
  6
CONTINUOUS
 62
40
 10
-2.45E+001
 20
1.7425192E+002
 40
1.5
  0
CIRCLE
  8
3D_SICHTBARE_KANTEN
  6
CONTINUOUS
 62
40
 10
-3.3E+001
 20
1.7425192E+002
 40
1.5
  0
CIRCLE
  8
3D_SICHTBARE_KANTEN
  6
CONTINUOUS
 62
40
 10
-4.15E+001
 20
1.7425192E+002
 40
1.5
  0
CIRCLE
  8
3D_SICHTBARE_KANTEN
  6
CONTINUOUS
 62
40
 10
-7.5
 20
1.6575192E+002
 40
1.5
  0
CIRCLE
  8
3D_SICHTBARE_KANTEN
  6
CONTINUOUS
 62
40
 10
-1.6E+001
 20
1.6575192E+002
 40
1.5
  0
CIRCLE
  8
3D_SICHTBARE_KANTEN
  6
CONTINUOUS
 62
40
 10
-2.45E+001
 20
1.6575192E+002
 40
1.5
  0
CIRCLE
  8
3D_SICHTBARE_KANTEN
  6
CONTINUOUS
 62
40
 10
-3.3E+001
 20
1.6575192E+002
 40
1.5
  0
CIRCLE
  8
3D_SICHTBARE_KANTEN
  6
CONTINUOUS
 62
40
 10
-4.15E+001
 20
1.6575192E+002
 40
1.5
  0
CIRCLE
  8
3D_SICHTBARE_KANTEN
  6
CONTINUOUS
 62
40
 10
-7.5
 20
1.5725192E+002
 40
1.5
  0
CIRCLE
  8
3D_SICHTBARE_KANTEN
  6
CONTINUOUS
 62
40
 10
-1.6E+001
 20
1.5725192E+002
 40
1.5
  0
CIRCLE
  8
3D_SICHTBARE_KANTEN
  6
CONTINUOUS
 62
40
 10
-2.45E+001
 20
1.5725192E+002
 40
1.5
  0
CIRCLE
  8
3D_SICHTBARE_KANTEN
  6
CONTINUOUS
 62
40
 10
-3.3E+001
 20
1.5725192E+002
 40
1.5
  0
CIRCLE
  8
3D_SICHTBARE_KANTEN
  6
CONTINUOUS
 62
40
 10
-4.15E+001
 20
1.5725192E+002
 40
1.5
  0
CIRCLE
  8
3D_SICHTBARE_KANTEN
  6
CONTINUOUS
 62
40
 10
-7.5
 20
1.4875192E+002
 40
1.5
  0
CIRCLE
  8
3D_SICHTBARE_KANTEN
  6
CONTINUOUS
 62
40
 10
-1.6E+001
 20
1.4875192E+002
 40
1.5
  0
CIRCLE
  8
3D_SICHTBARE_KANTEN
  6
CONTINUOUS
 62
40
 10
-2.45E+001
 20
1.4875192E+002
 40
1.5
  0
CIRCLE
  8
3D_SICHTBARE_KANTEN
  6
CONTINUOUS
 62
40
 10
-4.15E+001
 20
1.4875192E+002
 40
1.5
  0
CIRCLE
  8
3D_SICHTBARE_KANTEN
  6
CONTINUOUS
 62
40
 10
-7.5
 20
1.4025192E+002
 40
1.5
  0
CIRCLE
  8
3D_SICHTBARE_KANTEN
  6
CONTINUOUS
 62
40
 10
-1.6E+001
 20
1.4025192E+002
 40
1.5
  0
CIRCLE
  8
3D_SICHTBARE_KANTEN
  6
CONTINUOUS
 62
40
 10
-2.45E+001
 20
1.4025192E+002
 40
1.5
  0
CIRCLE
  8
3D_SICHTBARE_KANTEN
  6
CONTINUOUS
 62
40
 10
-3.3E+001
 20
1.4025192E+002
 40
1.5
  0
CIRCLE
  8
3D_SICHTBARE_KANTEN
  6
CONTINUOUS
 62
40
 10
-4.15E+001
 20
1.4025192E+002
 40
1.5
  0
LINE
  8
3D_SICHTBARE_KANTEN
  6
CONTINUOUS
 62
40
 10
-2.3670844E+001
 20
1.3900192E+002
 11
-2.3714406E+001
 21
1.3900192E+002
  0
ARC
  8
3D_SICHTBARE_KANTEN
  6
CONTINUOUS
 62
40
 10
-2.9E+001
 20
1.5725192E+002
 40
1.9E+001
 50
2.8614127E+002
 51
2.8615216E+002
  0
LINE
  8
2D_SICHTBARE_KANTEN
  6
CONTINUOUS
 62
40
 10
-4.1500066E+001
 20
2.0049996E+002
 11
-4.1500066E+001
 21
1.9549995E+002
  0
LINE
  8
2D_SICHTBARE_KANTEN
  6
CONTINUOUS
 62
40
 10
5.0E+001
 20
2.15E+002
 11
5.0E+001
 21
0.0
  0
LINE
  8
2D_SICHTBARE_KANTEN
  6
CONTINUOUS
 62
40
 10
0.0
 20
2.0E+002
 11
0.0
 21
0.0
  0
LINE
  8
2D_SICHTBARE_KANTEN
  6
CONTINUOUS
 62
40
 10
5.0E+001
 20
2.15E+002
 11
3.5E+001
 21
2.15E+002
  0
LINE
  8
2D_SICHTBARE_KANTEN
  6
CONTINUOUS
 62
40
 10
5.0E+001
 20
2.19E+002
 11
3.5E+001
 21
2.19E+002
  0
LINE
  8
2D_SICHTBARE_KANTEN
  6
CONTINUOUS
 62
40
 10
5.0E+001
 20
2.89E+002
 11
5.0E+001
 21
2.19E+002
  0
LINE
  8
2D_SICHTBARE_KANTEN
  6
CONTINUOUS
 62
40
 10
-1.5E+001
 20
2.888259E+002
 11
-1.5E+001
 21
2.04E+002
  0
LINE
  8
2D_MITTELLINIEN
  6
CENTERLINE
 62
1
 10
6.6342387E+001
 20
0.0
 11
-1.7003785E+001
 21
0.0
  0
INSERT
  2
44
  8
2D_SYMBOLE
 10
5.75E+001
 20
9.5E+001
 41
1.0
 43
1.0
 42
-1.0
 50
1.8E+002
  0
LINE
  8
2D_SICHTBARE_KANTEN
  6
CONTINUOUS
 62
40
 10
3.5E+001
 20
2.0E+002
 11
0.0
 21
2.0E+002
  0
LINE
  8
2D_SICHTBARE_KANTEN
  6
CONTINUOUS
 62
40
 10
3.5E+001
 20
2.15E+002
 11
3.5E+001
 21
2.0E+002
  0
LINE
  8
2D_SICHTBARE_KANTEN
  6
CONTINUOUS
 62
40
 10
3.5E+001
 20
2.15E+002
 11
3.5E+001
 21
2.19E+002
  0
LINE
  8
99
  6
CONTINUOUS
 62
1
 10
0.0
 20
1.775E+002
 11
1.1E+001
 21
1.775E+002
  0
LINE
  8
99
  6
CONTINUOUS
 62
1
 10
1.1E+001
 20
1.745E+002
 11
0.0
 21
1.745E+002
  0
LINE
  8
2D_SICHTBARE_KANTEN
  6
CONTINUOUS
 62
40
 10
0.0
 20
1.785E+002
 11
1.1E+001
 21
1.785E+002
  0
LINE
  8
2D_SICHTBARE_KANTEN
  6
CONTINUOUS
 62
40
 10
1.1E+001
 20
1.785E+002
 11
1.1E+001
 21
1.735E+002
  0
LINE
  8
2D_SICHTBARE_KANTEN
  6
CONTINUOUS
 62
40
 10
1.1E+001
 20
1.735E+002
 11
0.0
 21
1.735E+002
  0
LINE
  8
99
  6
CONTINUOUS
 62
1
 10
-1.4237E-006
 20
1.3449999E+002
 11
1.0999999E+001
 21
1.3449999E+002
  0
LINE
  8
99
  6
CONTINUOUS
 62
1
 10
1.0999999E+001
 20
1.3149999E+002
 11
-1.4237E-006
 21
1.3149999E+002
  0
LINE
  8
2D_SICHTBARE_KANTEN
  6
CONTINUOUS
 62
40
 10
-1.4237E-006
 20
1.3549999E+002
 11
1.0999999E+001
 21
1.3549999E+002
  0
LINE
  8
2D_SICHTBARE_KANTEN
  6
CONTINUOUS
 62
40
 10
1.0999999E+001
 20
1.3549999E+002
 11
1.0999999E+001
 21
1.3049999E+002
  0
LINE
  8
2D_SICHTBARE_KANTEN
  6
CONTINUOUS
 62
40
 10
1.0999999E+001
 20
1.3049999E+002
 11
-1.4237E-006
 21
1.3049999E+002
  0
LINE
  8
2D_MITTELLINIEN
  6
CENTERLINE
 62
1
 10
-7.6777358
 20
1.3299999E+002
 11
1.2781844E+001
 21
1.3299999E+002
  0
LINE
  8
2D_MITTELLINIEN
  6
CENTERLINE
 62
1
 10
-7.5410156
 20
1.76E+002
 11
1.5585978E+001
 21
1.76E+002
  0
LINE
  8
2D_SICHTBARE_KANTEN
  6
CONTINUOUS
 62
40
 10
5.0E+001
 20
2.89E+002
 11
-1.5E+001
 21
2.89E+002
  0
LINE
  8
2D_SICHTBARE_KANTEN
  6
CONTINUOUS
 62
40
 10
-1.5E+001
 20
2.04E+002
 11
3.5E+001
 21
2.04E+002
  0
DIMENSION
  8
2D_BEMASSUNG
  6
CONTINUOUS
 62
1
  1
max.26
  2
*D953
  3
DSTYLE1
 10
-1.5E+001
 20
3.1354652E+002
 11
-4.0948708E+001
 21
3.2004852E+002
 70
128
 13
0.0
 23
2.0E+002
 14
-1.5E+001
 24
2.888259E+002
 40
1.0E+001
 50
0.0
1001
ACAD
1000
DSTYLE
1002
{
1070
173
1070
0
1070
5
1000
_AH13
1002
}
  0
DIMENSION
  8
2D_BEMASSUNG
  6
CONTINUOUS
 62
1
  2
*D954
  3
DSTYLE1
 10
9.4397289E+001
 20
1.3299999E+002
 11
8.7895289E+001
 21
1.5439195E+002
 70
128
 13
1.5585978E+001
 23
1.76E+002
 14
1.2781844E+001
 24
1.3299999E+002
 40
1.0E+001
 50
9.0E+001
1001
ACAD
1000
DSTYLE
1002
{
1070
173
1070
0
1070
5
1000
_AH13
1002
}
  0
DIMENSION
  8
2D_BEMASSUNG
  6
CONTINUOUS
 62
1
  2
*D955
  3
DSTYLE1
 10
9.4625172E+001
 20
2.04E+002
 11
8.8123172E+001
 21
1.9063823E+002
 70
128
 13
1.5585978E+001
 23
1.76E+002
 14
3.5E+001
 24
2.04E+002
 40
1.0E+001
 50
9.0E+001
1001
ACAD
1000
DSTYLE
1002
{
1070
173
1070
0
1070
5
1000
_AH13
1002
}
  0
DIMENSION
  8
2D_BEMASSUNG
  6
CONTINUOUS
 62
1
  2
*D956
  3
DSTYLE1
 10
1.1941388E+002
 20
2.14E+002
 11
1.1291187E+002
 21
1.7737103E+002
 70
128
 13
1.2781844E+001
 23
1.3299999E+002
 14
-1.016037
 24
2.14E+002
 40
1.0E+001
 50
9.0E+001
1001
ACAD
1000
DSTYLE
1002
{
1070
173
1070
0
1070
5
1000
_AH13
1002
}
  0
POINT
  8
Drafting_Hidden_Entities
  6
CONTINUOUS
 62
1
 10
0.0
 20
0.0
  0
ENDBLK
  0
BLOCK
  2
TTZUNEW01NEW00
 10
0.0
 20
0.0
 70
0
  0
LINE
  8
2D_MITTELLINIEN
  6
CENTERLINE
 62
1
 10
1.5575498E+001
 20
0.0
 11
-2.95E+001
 21
0.0
  0
LINE
  8
2D_SICHTBARE_KANTEN
  6
CONTINUOUS
 62
40
 10
1.4E+001
 20
2.5
 11
0.0
 21
2.5
  0
LINE
  8
2D_SICHTBARE_KANTEN
  6
CONTINUOUS
 62
40
 10
1.4E+001
 20
-2.5
 11
0.0
 21
-2.5
  0
LINE
  8
2D_SICHTBARE_KANTEN
  6
CONTINUOUS
 62
40
 10
1.4E+001
 20
2.5
 11
1.4E+001
 21
-2.5
  0
LINE
  8
2D_SICHTBARE_KANTEN
  6
CONTINUOUS
 62
1
 10
1.4E+001
 20
2.0
 11
0.0
 21
2.0
  0
LINE
  8
2D_SICHTBARE_KANTEN
  6
CONTINUOUS
 62
1
 10
1.4E+001
 20
-2.0
 11
0.0
 21
-2.0
  0
ARC
  8
3D_SICHTBARE_KANTEN
  6
CONTINUOUS
 62
40
 10
-2.8E+001
 20
7.0
 40
3.0
 50
8.9999987E+001
 51
1.8000001E+002
  0
ARC
  8
3D_SICHTBARE_KANTEN
  6
CONTINUOUS
 62
40
 10
-2.8E+001
 20
-7.0
 40
3.0
 50
1.7999999E+002
 51
2.7000001E+002
  0
LINE
  8
3D_SICHTBARE_KANTEN
  6
CONTINUOUS
 62
40
 10
-2.8E+001
 20
-1.0E+001
 11
0.0
 21
-1.0E+001
  0
LINE
  8
3D_SICHTBARE_KANTEN
  6
CONTINUOUS
 62
40
 10
-3.1E+001
 20
7.0
 11
-3.1E+001
 21
-7.0
  0
LINE
  8
3D_SICHTBARE_KANTEN
  6
CONTINUOUS
 62
40
 10
0.0
 20
1.0E+001
 11
-2.8E+001
 21
1.0E+001
  0
LINE
  8
3D_SICHTBARE_KANTEN
  6
CONTINUOUS
 62
1
 10
-2.8E+001
 20
7.5
 11
0.0
 21
7.5
  0
ARC
  8
3D_SICHTBARE_KANTEN
  6
CONTINUOUS
 62
1
 10
-2.8E+001
 20
7.0
 40
5.0E-001
 50
9.0E+001
 51
1.8E+002
  0
LINE
  8
3D_SICHTBARE_KANTEN
  6
CONTINUOUS
 62
1
 10
-2.85E+001
 20
-7.0
 11
-2.85E+001
 21
7.0
  0
ARC
  8
3D_SICHTBARE_KANTEN
  6
CONTINUOUS
 62
1
 10
-2.8E+001
 20
-7.0
 40
5.0E-001
 50
1.8E+002
 51
2.7E+002
  0
LINE
  8
3D_SICHTBARE_KANTEN
  6
CONTINUOUS
 62
1
 10
0.0
 20
-7.5
 11
-2.8E+001
 21
-7.5
  0
LINE
  8
3D_SICHTBARE_KANTEN
  6
CONTINUOUS
 62
1
 10
-2.8E+001
 20
-8.5
 11
0.0
 21
-8.5
  0
ARC
  8
3D_SICHTBARE_KANTEN
  6
CONTINUOUS
 62
1
 10
-2.8E+001
 20
-7.0
 40
1.5
 50
1.8E+002
 51
2.7E+002
  0
LINE
  8
3D_SICHTBARE_KANTEN
  6
CONTINUOUS
 62
1
 10
-2.95E+001
 20
7.0
 11
-2.95E+001
 21
-7.0
  0
ARC
  8
3D_SICHTBARE_KANTEN
  6
CONTINUOUS
 62
1
 10
-2.8E+001
 20
7.0
 40
1.5
 50
9.0E+001
 51
1.8E+002
  0
LINE
  8
3D_SICHTBARE_KANTEN
  6
CONTINUOUS
 62
1
 10
0.0
 20
8.5
 11
-2.8E+001
 21
8.5
  0
LINE
  8
3D_SICHTBARE_KANTEN
  6
CONTINUOUS
 62
40
 10
0.0
 20
9.7
 11
0.0
 21
1.0E+001
  0
LINE
  8
3D_SICHTBARE_KANTEN
  6
CONTINUOUS
 62
40
 10
0.0
 20
-1.0E+001
 11
0.0
 21
-9.7
  0
LINE
  8
3D_SICHTBARE_KANTEN
  6
CONTINUOUS
 62
40
 10
0.0
 20
-9.7
 11
0.0
 21
-8.5
  0
LINE
  8
3D_SICHTBARE_KANTEN
  6
CONTINUOUS
 62
1
 10
0.0
 20
-8.5
 11
0.0
 21
-7.5
  0
LINE
  8
3D_SICHTBARE_KANTEN
  6
CONTINUOUS
 62
40
 10
0.0
 20
-7.5
 11
0.0
 21
7.5
  0
LINE
  8
3D_SICHTBARE_KANTEN
  6
CONTINUOUS
 62
1
 10
0.0
 20
7.5
 11
0.0
 21
8.5
  0
LINE
  8
3D_SICHTBARE_KANTEN
  6
CONTINUOUS
 62
40
 10
0.0
 20
8.5
 11
0.0
 21
9.7
  0
POINT
  8
Drafting_Hidden_Entities
  6
CONTINUOUS
 62
1
 10
0.0
 20
0.0
  0
ENDBLK
  0
BLOCK
  2
ZZUINEW00
 10
0.0
 20
0.0
 70
0
  0
INSERT
  2
TTZUNEW01NEW00
  8
2D_SYMBOLE
 10
-1.5E+001
 20
2.14E+002
  0
LINE
  8
2D_BEMASSUNG
  6
CENTERLINE
 62
150
 10
0.0
 20
1.465E+002
 11
0.0
 21
1.515E+002
  0
LINE
  8
2D_BEMASSUNG
  6
CENTERLINE
 62
150
 10
-1.4237E-006
 20
1.3049999E+002
 11
-1.4237E-006
 21
1.3549999E+002
  0
LINE
  8
2D_SICHTBARE_KANTEN
  6
CONTINUOUS
 62
40
 10
-1.7000001E+001
 20
1.9549995E+002
 11
-1.7000001E+001
 21
1.8725E+002
  0
LINE
  8
2D_SICHTBARE_KANTEN
  6
CONTINUOUS
 62
40
 10
-3.9000005E+001
 20
1.8725E+002
 11
-3.9000005E+001
 21
1.9549995E+002
  0
LINE
  8
2D_SICHTBARE_KANTEN
  6
CONTINUOUS
 62
40
 10
-4.1500066E+001
 20
2.0049996E+002
 11
-1.7000001E+001
 21
2.0049996E+002
  0
LINE
  8
2D_SICHTBARE_KANTEN
  6
CONTINUOUS
 62
40
 10
-4.1500066E+001
 20
1.9549995E+002
 11
-2.0554217E+001
 21
1.9549995E+002
  0
LINE
  8
2D_SICHTBARE_KANTEN
  6
CONTINUOUS
 62
40
 10
-1.7000001E+001
 20
2.0049996E+002
 11
-1.7000001E+001
 21
1.8724999E+002
  0
LINE
  8
2D_VERDECKTE_KANTEN
  6
HIDDEN
 62
1
 10
-1.4237E-006
 20
1.5724996E+002
 11
-1.4237E-006
 21
1.8499996E+002
  0
ARC
  8
2D_VERDECKTE_KANTEN
  6
HIDDEN
 62
1
 10
-4.9998302E-001
 20
1.8499998E+002
 40
4.999816E-001
 50
3.5999789E+002
 51
4.5000211E+002
  0
LINE
  8
2D_VERDECKTE_KANTEN
  6
HIDDEN
 62
1
 10
-5.0000142E-001
 20
1.8549996E+002
 11
-2.0928969
 21
1.8549996E+002
  0
ARC
  8
2D_VERDECKTE_KANTEN
  6
HIDDEN
 62
1
 10
-2.0928575
 20
1.8599998E+002
 40
5.0002333E-001
 50
2.2500241E+002
 51
2.6999548E+002
  0
LINE
  8
2D_VERDECKTE_KANTEN
  6
HIDDEN
 62
1
 10
-2.4464126
 20
1.856464E+002
 11
-3.1535659
 21
1.863535E+002
  0
ARC
  8
2D_VERDECKTE_KANTEN
  6
HIDDEN
 62
1
 10
-3.5070699
 20
1.8600009E+002
 40
4.998634E-001
 50
4.499234E+001
 51
9.0001327E+001
  0
LINE
  8
2D_VERDECKTE_KANTEN
  6
HIDDEN
 62
1
 10
-3.5070815
 20
1.8649996E+002
 11
-3.6928725
 21
1.8649996E+002
  0
ARC
  8
2D_VERDECKTE_KANTEN
  6
HIDDEN
 62
1
 10
-3.6929471
 20
1.860001E+002
 40
4.9985856E-001
 50
8.9991448E+001
 51
1.3500789E+002
  0
LINE
  8
2D_VERDECKTE_KANTEN
  6
HIDDEN
 62
1
 10
-4.0464492
 20
1.863535E+002
 11
-4.853517
 21
1.8554642E+002
  0
ARC
  8
2D_VERDECKTE_KANTEN
  6
HIDDEN
 62
1
 10
-4.5001513
 20
1.8519289E+002
 40
4.9985012E-001
 50
1.3498676E+002
 51
1.8000371E+002
  0
LINE
  8
2D_VERDECKTE_KANTEN
  6
HIDDEN
 62
1
 10
-5.0000014
 20
1.8519286E+002
 11
-5.0000014
 21
1.2930706E+002
  0
ARC
  8
2D_VERDECKTE_KANTEN
  6
HIDDEN
 62
1
 10
-4.500042
 20
1.2930707E+002
 40
4.9995942E-001
 50
1.8000148E+002
 51
2.2500805E+002
  0
LINE
  8
2D_VERDECKTE_KANTEN
  6
HIDDEN
 62
1
 10
-4.853517
 20
1.289535E+002
 11
-4.0464492
 21
1.2814641E+002
  0
ARC
  8
2D_VERDECKTE_KANTEN
  6
HIDDEN
 62
1
 10
-3.6928717
 20
1.285E+002
 40
5.0004068E-001
 50
2.2500076E+002
 51
2.6999991E+002
  0
LINE
  8
2D_VERDECKTE_KANTEN
  6
HIDDEN
 62
1
 10
-3.6928725
 20
1.2799996E+002
 11
-3.5070815
 21
1.2799996E+002
  0
ARC
  8
2D_VERDECKTE_KANTEN
  6
HIDDEN
 62
1
 10
-3.5070975
 20
1.2849989E+002
 40
4.9992995E-001
 50
2.7000183E+002
 51
3.150045E+002
  0
LINE
  8
2D_VERDECKTE_KANTEN
  6
HIDDEN
 62
1
 10
-3.1535659
 20
1.2814641E+002
 11
-2.4464126
 21
1.2885352E+002
  0
ARC
  8
2D_VERDECKTE_KANTEN
  6
HIDDEN
 62
1
 10
-2.0928675
 20
1.2849996E+002
 40
4.9999931E-001
 50
9.0003377E+001
 51
1.3499873E+002
  0
LINE
  8
2D_VERDECKTE_KANTEN
  6
HIDDEN
 62
1
 10
-2.0928969
 20
1.2899996E+002
 11
-5.0000142E-001
 21
1.2899996E+002
  0
ARC
  8
2D_VERDECKTE_KANTEN
  6
HIDDEN
 62
1
 10
-5.0000048E-001
 20
1.2949996E+002
 40
4.9999906E-001
 50
2.6999989E+002
 51
3.6000011E+002
  0
LINE
  8
2D_VERDECKTE_KANTEN
  6
HIDDEN
 62
1
 10
-1.4237E-006
 20
1.2949996E+002
 11
-1.4237E-006
 21
1.5724996E+002
  0
LINE
  8
2D_MITTELLINIEN
  6
CENTERLINE
 62
1
 10
-6.0678143
 20
1.76E+002
 11
2.9508057
 21
1.76E+002
  0
LINE
  8
2D_MITTELLINIEN
  6
CENTERLINE
 62
1
 10
-6.0678143
 20
1.6E+002
 11
2.7622681
 21
1.6E+002
  0
LINE
  8
2D_MITTELLINIEN
  6
CENTERLINE
 62
1
 10
-6.0678143
 20
1.49E+002
 11
2.333313
 21
1.49E+002
  0
LINE
  8
2D_MITTELLINIEN
  6
CENTERLINE
 62
1
 10
-6.0678774
 20
1.33E+002
 11
2.7207031
 21
1.3299998E+002
  0
LINE
  8
2D_VERDECKTE_KANTEN
  6
HIDDEN
 62
1
 10
-5.0
 20
1.3849998E+002
 11
-2.0
 21
1.3549998E+002
  0
LINE
  8
2D_VERDECKTE_KANTEN
  6
HIDDEN
 62
1
 10
-2.0
 20
1.3549998E+002
 11
-2.0
 21
1.3049998E+002
  0
LINE
  8
2D_VERDECKTE_KANTEN
  6
HIDDEN
 62
1
 10
-2.0
 20
1.3049998E+002
 11
-4.1999512
 21
1.2829997E+002
  0
LINE
  8
2D_VERDECKTE_KANTEN
  6
HIDDEN
 62
1
 10
-5.0
 20
1.545E+002
 11
-2.0
 21
1.515E+002
  0
LINE
  8
2D_VERDECKTE_KANTEN
  6
HIDDEN
 62
1
 10
-2.0
 20
1.515E+002
 11
-2.0
 21
1.465E+002
  0
LINE
  8
2D_VERDECKTE_KANTEN
  6
HIDDEN
 62
1
 10
-2.0
 20
1.465E+002
 11
-5.0
 21
1.435E+002
  0
LINE
  8
2D_VERDECKTE_KANTEN
  6
HIDDEN
 62
1
 10
-2.0
 20
1.465E+002
 11
0.0
 21
1.465E+002
  0
LINE
  8
2D_VERDECKTE_KANTEN
  6
HIDDEN
 62
1
 10
0.0
 20
1.515E+002
 11
-2.0
 21
1.515E+002
  0
LINE
  8
2D_VERDECKTE_KANTEN
  6
HIDDEN
 62
1
 10
-2.0
 20
1.355E+002
 11
0.0
 21
1.355E+002
  0
LINE
  8
2D_VERDECKTE_KANTEN
  6
HIDDEN
 62
1
 10
0.0
 20
1.305E+002
 11
-2.0
 21
1.305E+002
  0
LINE
  8
2D_VERDECKTE_KANTEN
  6
HIDDEN
 62
1
 10
-5.0
 20
1.815E+002
 11
-2.0
 21
1.785E+002
  0
LINE
  8
2D_VERDECKTE_KANTEN
  6
HIDDEN
 62
1
 10
-2.0
 20
1.785E+002
 11
-2.0
 21
1.735E+002
  0
LINE
  8
2D_VERDECKTE_KANTEN
  6
HIDDEN
 62
1
 10
-2.0
 20
1.735E+002
 11
-5.0
 21
1.705E+002
  0
LINE
  8
2D_VERDECKTE_KANTEN
  6
HIDDEN
 62
1
 10
-2.0
 20
1.785E+002
 11
0.0
 21
1.785E+002
  0
LINE
  8
2D_VERDECKTE_KANTEN
  6
HIDDEN
 62
1
 10
0.0
 20
1.735E+002
 11
-2.0
 21
1.735E+002
  0
LINE
  8
2D_VERDECKTE_KANTEN
  6
HIDDEN
 62
1
 10
-5.0
 20
1.655E+002
 11
-2.0
 21
1.625E+002
  0
LINE
  8
2D_VERDECKTE_KANTEN
  6
HIDDEN
 62
1
 10
-2.0
 20
1.625E+002
 11
-2.0
 21
1.575E+002
  0
LINE
  8
2D_VERDECKTE_KANTEN
  6
HIDDEN
 62
1
 10
-2.0
 20
1.575E+002
 11
-5.0
 21
1.545E+002
  0
LINE
  8
2D_VERDECKTE_KANTEN
  6
HIDDEN
 62
1
 10
-2.0
 20
1.625E+002
 11
0.0
 21
1.625E+002
  0
LINE
  8
2D_VERDECKTE_KANTEN
  6
HIDDEN
 62
1
 10
0.0
 20
1.575E+002
 11
-2.0
 21
1.575E+002
  0
LINE
  8
2D_SICHTBARE_KANTEN
  6
CONTINUOUS
 62
40
 10
0.0
 20
1.2724998E+002
 11
0.0
 21
1.8725E+002
  0
LINE
  8
2D_SICHTBARE_KANTEN
  6
CONTINUOUS
 62
40
 10
0.0
 20
1.8725E+002
 11
-4.9963135E+001
 21
1.8725E+002
  0
ARC
  8
2D_SICHTBARE_KANTEN
  6
CONTINUOUS
 62
40
 10
-4.9963122E+001
 20
1.8424999E+002
 40
3.0000131
 50
9.0000238E+001
 51
1.7996303E+002
  0
LINE
  8
2D_SICHTBARE_KANTEN
  6
CONTINUOUS
 62
40
 10
-5.2963135E+001
 20
1.8425192E+002
 11
-5.2998047E+001
 21
1.3025192E+002
  0
ARC
  8
2D_SICHTBARE_KANTEN
  6
CONTINUOUS
 62
40
 10
-4.999804E+001
 20
1.3024998E+002
 40
3.0000076
 50
1.7996284E+002
 51
2.6999987E+002
  0
LINE
  8
2D_SICHTBARE_KANTEN
  6
CONTINUOUS
 62
40
 10
-4.9998047E+001
 20
1.2724997E+002
 11
0.0
 21
1.2724998E+002
  0
LINE
  8
2D_SICHTBARE_KANTEN
  6
CONTINUOUS
 62
40
 10
-1.7000001E+001
 20
1.9549995E+002
 11
-2.0554217E+001
 21
1.9549995E+002
  0
LINE
  8
2D_BEMASSUNG
  6
CENTERLINE
 62
150
 10
-1.4237E-006
 20
2.165E+002
 11
-1.4237E-006
 21
2.115E+002
  0
LINE
  8
2D_MITTELLINIEN
  6
CENTERLINE
 62
1
 10
2.5597487
 20
2.14E+002
 11
-2.9500001E+001
 21
2.14E+002
  0
LINE
  8
2D_SICHTBARE_KANTEN
  6
CONTINUOUS
 62
40
 10
-2.2000066E+001
 20
2.04E+002
 11
-2.2000066E+001
 21
2.0199995E+002
  0
LINE
  8
2D_SICHTBARE_KANTEN
  6
CONTINUOUS
 62
40
 10
-2.2000066E+001
 20
2.0199995E+002
 11
-3.9000066E+001
 21
2.0199995E+002
  0
LINE
  8
2D_SICHTBARE_KANTEN
  6
CONTINUOUS
 62
40
 10
-3.9000066E+001
 20
2.0199995E+002
 11
-3.9000066E+001
 21
2.04E+002
  0
LINE
  8
2D_SICHTBARE_KANTEN
  6
CONTINUOUS
 62
40
 10
-3.5475042E+001
 20
2.0145001E+002
 11
-3.5475042E+001
 21
2.0199995E+002
  0
LINE
  8
2D_SICHTBARE_KANTEN
  6
CONTINUOUS
 62
40
 10
-3.5475042E+001
 20
2.0199995E+002
 11
-3.5475042E+001
 21
2.0049996E+002
  0
LINE
  8
2D_SICHTBARE_KANTEN
  6
CONTINUOUS
 62
40
 10
-2.5524969E+001
 20
2.0145001E+002
 11
-2.5524969E+001
 21
2.0199995E+002
  0
LINE
  8
2D_SICHTBARE_KANTEN
  6
CONTINUOUS
 62
40
 10
-2.5524969E+001
 20
2.0199995E+002
 11
-2.5525017E+001
 21
2.0049996E+002
  0
CIRCLE
  8
3D_SICHTBARE_KANTEN
  6
CONTINUOUS
 62
40
 10
-3.3E+001
 20
1.4875192E+002
 40
1.5
  0
CIRCLE
  8
3D_SICHTBARE_KANTEN
  6
CONTINUOUS
 62
40
 10
-7.5
 20
1.7425192E+002
 40
1.5
  0
CIRCLE
  8
3D_SICHTBARE_KANTEN
  6
CONTINUOUS
 62
40
 10
-1.6E+001
 20
1.7425192E+002
 40
1.5
  0
CIRCLE
  8
3D_SICHTBARE_KANTEN
  6
CONTINUOUS
 62
40
 10
-2.45E+001
 20
1.7425192E+002
 40
1.5
  0
CIRCLE
  8
3D_SICHTBARE_KANTEN
  6
CONTINUOUS
 62
40
 10
-3.3E+001
 20
1.7425192E+002
 40
1.5
  0
CIRCLE
  8
3D_SICHTBARE_KANTEN
  6
CONTINUOUS
 62
40
 10
-4.15E+001
 20
1.7425192E+002
 40
1.5
  0
CIRCLE
  8
3D_SICHTBARE_KANTEN
  6
CONTINUOUS
 62
40
 10
-7.5
 20
1.6575192E+002
 40
1.5
  0
CIRCLE
  8
3D_SICHTBARE_KANTEN
  6
CONTINUOUS
 62
40
 10
-1.6E+001
 20
1.6575192E+002
 40
1.5
  0
CIRCLE
  8
3D_SICHTBARE_KANTEN
  6
CONTINUOUS
 62
40
 10
-2.45E+001
 20
1.6575192E+002
 40
1.5
  0
CIRCLE
  8
3D_SICHTBARE_KANTEN
  6
CONTINUOUS
 62
40
 10
-3.3E+001
 20
1.6575192E+002
 40
1.5
  0
CIRCLE
  8
3D_SICHTBARE_KANTEN
  6
CONTINUOUS
 62
40
 10
-4.15E+001
 20
1.6575192E+002
 40
1.5
  0
CIRCLE
  8
3D_SICHTBARE_KANTEN
  6
CONTINUOUS
 62
40
 10
-7.5
 20
1.5725192E+002
 40
1.5
  0
CIRCLE
  8
3D_SICHTBARE_KANTEN
  6
CONTINUOUS
 62
40
 10
-1.6E+001
 20
1.5725192E+002
 40
1.5
  0
CIRCLE
  8
3D_SICHTBARE_KANTEN
  6
CONTINUOUS
 62
40
 10
-2.45E+001
 20
1.5725192E+002
 40
1.5
  0
CIRCLE
  8
3D_SICHTBARE_KANTEN
  6
CONTINUOUS
 62
40
 10
-3.3E+001
 20
1.5725192E+002
 40
1.5
  0
CIRCLE
  8
3D_SICHTBARE_KANTEN
  6
CONTINUOUS
 62
40
 10
-4.15E+001
 20
1.5725192E+002
 40
1.5
  0
CIRCLE
  8
3D_SICHTBARE_KANTEN
  6
CONTINUOUS
 62
40
 10
-7.5
 20
1.4875192E+002
 40
1.5
  0
CIRCLE
  8
3D_SICHTBARE_KANTEN
  6
CONTINUOUS
 62
40
 10
-1.6E+001
 20
1.4875192E+002
 40
1.5
  0
CIRCLE
  8
3D_SICHTBARE_KANTEN
  6
CONTINUOUS
 62
40
 10
-2.45E+001
 20
1.4875192E+002
 40
1.5
  0
CIRCLE
  8
3D_SICHTBARE_KANTEN
  6
CONTINUOUS
 62
40
 10
-4.15E+001
 20
1.4875192E+002
 40
1.5
  0
CIRCLE
  8
3D_SICHTBARE_KANTEN
  6
CONTINUOUS
 62
40
 10
-7.5
 20
1.4025192E+002
 40
1.5
  0
CIRCLE
  8
3D_SICHTBARE_KANTEN
  6
CONTINUOUS
 62
40
 10
-1.6E+001
 20
1.4025192E+002
 40
1.5
  0
CIRCLE
  8
3D_SICHTBARE_KANTEN
  6
CONTINUOUS
 62
40
 10
-2.45E+001
 20
1.4025192E+002
 40
1.5
  0
CIRCLE
  8
3D_SICHTBARE_KANTEN
  6
CONTINUOUS
 62
40
 10
-3.3E+001
 20
1.4025192E+002
 40
1.5
  0
CIRCLE
  8
3D_SICHTBARE_KANTEN
  6
CONTINUOUS
 62
40
 10
-4.15E+001
 20
1.4025192E+002
 40
1.5
  0
LINE
  8
3D_SICHTBARE_KANTEN
  6
CONTINUOUS
 62
40
 10
-2.3670844E+001
 20
1.3900192E+002
 11
-2.3714406E+001
 21
1.3900192E+002
  0
ARC
  8
3D_SICHTBARE_KANTEN
  6
CONTINUOUS
 62
40
 10
-2.9E+001
 20
1.5725192E+002
 40
1.9E+001
 50
2.8614127E+002
 51
2.8615216E+002
  0
LINE
  8
2D_SICHTBARE_KANTEN
  6
CONTINUOUS
 62
40
 10
-4.1500066E+001
 20
2.0049996E+002
 11
-4.1500066E+001
 21
1.9549995E+002
  0
LINE
  8
2D_SICHTBARE_KANTEN
  6
CONTINUOUS
 62
40
 10
5.0E+001
 20
2.15E+002
 11
5.0E+001
 21
0.0
  0
LINE
  8
2D_SICHTBARE_KANTEN
  6
CONTINUOUS
 62
40
 10
0.0
 20
2.0E+002
 11
0.0
 21
0.0
  0
LINE
  8
2D_SICHTBARE_KANTEN
  6
CONTINUOUS
 62
40
 10
5.0E+001
 20
2.15E+002
 11
3.5E+001
 21
2.15E+002
  0
LINE
  8
2D_SICHTBARE_KANTEN
  6
CONTINUOUS
 62
40
 10
5.0E+001
 20
2.19E+002
 11
3.5E+001
 21
2.19E+002
  0
LINE
  8
2D_SICHTBARE_KANTEN
  6
CONTINUOUS
 62
40
 10
5.0E+001
 20
2.89E+002
 11
5.0E+001
 21
2.19E+002
  0
LINE
  8
2D_SICHTBARE_KANTEN
  6
CONTINUOUS
 62
40
 10
-1.5E+001
 20
2.888259E+002
 11
-1.5E+001
 21
2.04E+002
  0
LINE
  8
2D_MITTELLINIEN
  6
CENTERLINE
 62
1
 10
6.6342387E+001
 20
0.0
 11
-1.7003785E+001
 21
0.0
  0
INSERT
  2
44NEW00
  8
2D_SYMBOLE
 10
5.75E+001
 20
9.5E+001
 41
1.0
 43
1.0
 42
-1.0
 50
1.8E+002
  0
LINE
  8
2D_SICHTBARE_KANTEN
  6
CONTINUOUS
 62
40
 10
3.5E+001
 20
2.0E+002
 11
0.0
 21
2.0E+002
  0
LINE
  8
2D_SICHTBARE_KANTEN
  6
CONTINUOUS
 62
40
 10
3.5E+001
 20
2.15E+002
 11
3.5E+001
 21
2.0E+002
  0
LINE
  8
2D_SICHTBARE_KANTEN
  6
CONTINUOUS
 62
40
 10
3.5E+001
 20
2.15E+002
 11
3.5E+001
 21
2.19E+002
  0
LINE
  8
99
  6
CONTINUOUS
 62
1
 10
0.0
 20
1.775E+002
 11
1.1E+001
 21
1.775E+002
  0
LINE
  8
99
  6
CONTINUOUS
 62
1
 10
1.1E+001
 20
1.745E+002
 11
0.0
 21
1.745E+002
  0
LINE
  8
2D_SICHTBARE_KANTEN
  6
CONTINUOUS
 62
40
 10
0.0
 20
1.785E+002
 11
1.1E+001
 21
1.785E+002
  0
LINE
  8
2D_SICHTBARE_KANTEN
  6
CONTINUOUS
 62
40
 10
1.1E+001
 20
1.785E+002
 11
1.1E+001
 21
1.735E+002
  0
LINE
  8
2D_SICHTBARE_KANTEN
  6
CONTINUOUS
 62
40
 10
1.1E+001
 20
1.735E+002
 11
0.0
 21
1.735E+002
  0
LINE
  8
99
  6
CONTINUOUS
 62
1
 10
-1.4237E-006
 20
1.3449999E+002
 11
1.0999999E+001
 21
1.3449999E+002
  0
LINE
  8
99
  6
CONTINUOUS
 62
1
 10
1.0999999E+001
 20
1.3149999E+002
 11
-1.4237E-006
 21
1.3149999E+002
  0
LINE
  8
2D_SICHTBARE_KANTEN
  6
CONTINUOUS
 62
40
 10
-1.4237E-006
 20
1.3549999E+002
 11
1.0999999E+001
 21
1.3549999E+002
  0
LINE
  8
2D_SICHTBARE_KANTEN
  6
CONTINUOUS
 62
40
 10
1.0999999E+001
 20
1.3549999E+002
 11
1.0999999E+001
 21
1.3049999E+002
  0
LINE
  8
2D_SICHTBARE_KANTEN
  6
CONTINUOUS
 62
40
 10
1.0999999E+001
 20
1.3049999E+002
 11
-1.4237E-006
 21
1.3049999E+002
  0
LINE
  8
2D_MITTELLINIEN
  6
CENTERLINE
 62
1
 10
-7.6777358
 20
1.3299999E+002
 11
1.2781844E+001
 21
1.3299999E+002
  0
LINE
  8
2D_MITTELLINIEN
  6
CENTERLINE
 62
1
 10
-7.5410156
 20
1.76E+002
 11
1.5585978E+001
 21
1.76E+002
  0
LINE
  8
2D_SICHTBARE_KANTEN
  6
CONTINUOUS
 62
40
 10
5.0E+001
 20
2.89E+002
 11
-1.5E+001
 21
2.89E+002
  0
LINE
  8
2D_SICHTBARE_KANTEN
  6
CONTINUOUS
 62
40
 10
-1.5E+001
 20
2.04E+002
 11
3.5E+001
 21
2.04E+002
  0
DIMENSION
  8
2D_BEMASSUNG
  6
CONTINUOUS
 62
1
  1
max.26
  2
*D1125
  3
DSTYLE1
 10
-1.5E+001
 20
3.1354652E+002
 11
-4.0948708E+001
 21
3.2004852E+002
 70
128
 13
0.0
 23
2.0E+002
 14
-1.5E+001
 24
2.888259E+002
 40
1.0E+001
 50
0.0
1001
ACAD
1000
DSTYLE
1002
{
1070
173
1070
0
1070
5
1000
_AH13
1002
}
  0
DIMENSION
  8
2D_BEMASSUNG
  6
CONTINUOUS
 62
1
  2
*D1126
  3
DSTYLE1
 10
9.4397289E+001
 20
1.3299999E+002
 11
8.7895289E+001
 21
1.5439195E+002
 70
128
 13
1.5585978E+001
 23
1.76E+002
 14
1.2781844E+001
 24
1.3299999E+002
 40
1.0E+001
 50
9.0E+001
1001
ACAD
1000
DSTYLE
1002
{
1070
173
1070
0
1070
5
1000
_AH13
1002
}
  0
DIMENSION
  8
2D_BEMASSUNG
  6
CONTINUOUS
 62
1
  2
*D1127
  3
DSTYLE1
 10
9.4625172E+001
 20
2.04E+002
 11
8.8123172E+001
 21
1.9063823E+002
 70
128
 13
1.5585978E+001
 23
1.76E+002
 14
3.5E+001
 24
2.04E+002
 40
1.0E+001
 50
9.0E+001
1001
ACAD
1000
DSTYLE
1002
{
1070
173
1070
0
1070
5
1000
_AH13
1002
}
  0
DIMENSION
  8
2D_BEMASSUNG
  6
CONTINUOUS
 62
1
  2
*D1128
  3
DSTYLE1
 10
1.1941388E+002
 20
2.14E+002
 11
1.1291187E+002
 21
1.7737103E+002
 70
128
 13
1.2781844E+001
 23
1.3299999E+002
 14
-1.016037
 24
2.14E+002
 40
1.0E+001
 50
9.0E+001
1001
ACAD
1000
DSTYLE
1002
{
1070
173
1070
0
1070
5
1000
_AH13
1002
}
  0
POINT
  8
Drafting_Hidden_Entities
  6
CONTINUOUS
 62
1
 10
0.0
 20
0.0
  0
ENDBLK
  0
BLOCK
  2
44NEW00
 10
0.0
 20
0.0
 70
0
  0
ARC
  8
2D_SICHTBARE_KANTEN
  6
CONTINUOUS
 62
40
 10
0.0
 20
-6.7008E+001
 40
1.5001402E+001
 50
2.4000309E+002
 51
2.9999691E+002
  0
ARC
  8
2D_SICHTBARE_KANTEN
  6
CONTINUOUS
 62
40
 10
0.0
 20
-1.299E+001
 40
1.499967E+001
 50
5.9999272E+001
 51
1.2000073E+002
  0
LINE
  8
2D_SICHTBARE_KANTEN
  6
CONTINUOUS
 62
40
 10
7.5
 20
-8.0E+001
 11
-7.5
 21
-8.0E+001
  0
LINE
  8
2D_SICHTBARE_KANTEN
  6
CONTINUOUS
 62
40
 10
-7.5
 20
-8.0E+001
 11
-7.5
 21
-4.0E+001
  0
LINE
  8
2D_SICHTBARE_KANTEN
  6
CONTINUOUS
 62
40
 10
-7.5
 20
-4.0E+001
 11
7.5
 21
-4.0E+001
  0
LINE
  8
2D_SICHTBARE_KANTEN
  6
CONTINUOUS
 62
40
 10
7.5
 20
-4.0E+001
 11
7.5
 21
-8.0E+001
  0
LINE
  8
2D_SICHTBARE_KANTEN
  6
CONTINUOUS
 62
40
 10
7.5
 20
-4.0E+001
 11
-7.5
 21
-4.0E+001
  0
LINE
  8
2D_SICHTBARE_KANTEN
  6
CONTINUOUS
 62
40
 10
-7.5
 20
-4.0E+001
 11
-7.5
 21
0.0
  0
LINE
  8
2D_SICHTBARE_KANTEN
  6
CONTINUOUS
 62
40
 10
-7.5
 20
0.0
 11
7.5
 21
0.0
  0
LINE
  8
2D_SICHTBARE_KANTEN
  6
CONTINUOUS
 62
40
 10
7.5
 20
0.0
 11
7.5
 21
-4.0E+001
  0
LINE
  8
2D_MITTELLINIEN
  6
CENTERLINE
 62
1
 10
0.0
 20
-8.9134E+001
 11
0.0
 21
7.166
  0
POINT
  8
Drafting_Hidden_Entities
  6
CONTINUOUS
 62
1
 10
0.0
 20
0.0
  0
ENDBLK
  0
BLOCK
  2
JJK
 10
0.0
 20
0.0
 70
0
  0
LINE
  8
2D_BEMASSUNG
  6
CENTERLINE
 62
150
 10
0.0
 20
1.465E+002
 11
0.0
 21
1.515E+002
  0
LINE
  8
2D_BEMASSUNG
  6
CENTERLINE
 62
150
 10
-1.4237E-006
 20
1.3049999E+002
 11
-1.4237E-006
 21
1.3549999E+002
  0
LINE
  8
2D_SICHTBARE_KANTEN
  6
CONTINUOUS
 62
40
 10
-1.7000001E+001
 20
1.9549995E+002
 11
-1.7000001E+001
 21
1.8725E+002
  0
LINE
  8
2D_SICHTBARE_KANTEN
  6
CONTINUOUS
 62
40
 10
-3.9000005E+001
 20
1.8725E+002
 11
-3.9000005E+001
 21
1.9549995E+002
  0
LINE
  8
2D_SICHTBARE_KANTEN
  6
CONTINUOUS
 62
40
 10
-4.1500066E+001
 20
2.0049996E+002
 11
-1.7000001E+001
 21
2.0049996E+002
  0
LINE
  8
2D_SICHTBARE_KANTEN
  6
CONTINUOUS
 62
40
 10
-4.1500066E+001
 20
1.9549995E+002
 11
-2.0554217E+001
 21
1.9549995E+002
  0
LINE
  8
2D_SICHTBARE_KANTEN
  6
CONTINUOUS
 62
40
 10
-1.7000001E+001
 20
2.0049996E+002
 11
-1.7000001E+001
 21
1.8724999E+002
  0
LINE
  8
2D_VERDECKTE_KANTEN
  6
HIDDEN
 62
1
 10
-1.4237E-006
 20
1.5724996E+002
 11
-1.4237E-006
 21
1.8499996E+002
  0
ARC
  8
2D_VERDECKTE_KANTEN
  6
HIDDEN
 62
1
 10
-4.9998302E-001
 20
1.8499998E+002
 40
4.999816E-001
 50
3.5999789E+002
 51
4.5000211E+002
  0
LINE
  8
2D_VERDECKTE_KANTEN
  6
HIDDEN
 62
1
 10
-5.0000142E-001
 20
1.8549996E+002
 11
-2.0928969
 21
1.8549996E+002
  0
ARC
  8
2D_VERDECKTE_KANTEN
  6
HIDDEN
 62
1
 10
-2.0928575
 20
1.8599998E+002
 40
5.0002333E-001
 50
2.2500241E+002
 51
2.6999548E+002
  0
LINE
  8
2D_VERDECKTE_KANTEN
  6
HIDDEN
 62
1
 10
-2.4464126
 20
1.856464E+002
 11
-3.1535659
 21
1.863535E+002
  0
ARC
  8
2D_VERDECKTE_KANTEN
  6
HIDDEN
 62
1
 10
-3.5070699
 20
1.8600009E+002
 40
4.998634E-001
 50
4.499234E+001
 51
9.0001327E+001
  0
LINE
  8
2D_VERDECKTE_KANTEN
  6
HIDDEN
 62
1
 10
-3.5070815
 20
1.8649996E+002
 11
-3.6928725
 21
1.8649996E+002
  0
ARC
  8
2D_VERDECKTE_KANTEN
  6
HIDDEN
 62
1
 10
-3.6929471
 20
1.860001E+002
 40
4.9985856E-001
 50
8.9991448E+001
 51
1.3500789E+002
  0
LINE
  8
2D_VERDECKTE_KANTEN
  6
HIDDEN
 62
1
 10
-4.0464492
 20
1.863535E+002
 11
-4.853517
 21
1.8554642E+002
  0
ARC
  8
2D_VERDECKTE_KANTEN
  6
HIDDEN
 62
1
 10
-4.5001513
 20
1.8519289E+002
 40
4.9985012E-001
 50
1.3498676E+002
 51
1.8000371E+002
  0
LINE
  8
2D_VERDECKTE_KANTEN
  6
HIDDEN
 62
1
 10
-5.0000014
 20
1.8519286E+002
 11
-5.0000014
 21
1.2930706E+002
  0
ARC
  8
2D_VERDECKTE_KANTEN
  6
HIDDEN
 62
1
 10
-4.500042
 20
1.2930707E+002
 40
4.9995942E-001
 50
1.8000148E+002
 51
2.2500805E+002
  0
LINE
  8
2D_VERDECKTE_KANTEN
  6
HIDDEN
 62
1
 10
-4.853517
 20
1.289535E+002
 11
-4.0464492
 21
1.2814641E+002
  0
ARC
  8
2D_VERDECKTE_KANTEN
  6
HIDDEN
 62
1
 10
-3.6928717
 20
1.285E+002
 40
5.0004068E-001
 50
2.2500076E+002
 51
2.6999991E+002
  0
LINE
  8
2D_VERDECKTE_KANTEN
  6
HIDDEN
 62
1
 10
-3.6928725
 20
1.2799996E+002
 11
-3.5070815
 21
1.2799996E+002
  0
ARC
  8
2D_VERDECKTE_KANTEN
  6
HIDDEN
 62
1
 10
-3.5070975
 20
1.2849989E+002
 40
4.9992995E-001
 50
2.7000183E+002
 51
3.150045E+002
  0
LINE
  8
2D_VERDECKTE_KANTEN
  6
HIDDEN
 62
1
 10
-3.1535659
 20
1.2814641E+002
 11
-2.4464126
 21
1.2885352E+002
  0
ARC
  8
2D_VERDECKTE_KANTEN
  6
HIDDEN
 62
1
 10
-2.0928675
 20
1.2849996E+002
 40
4.9999931E-001
 50
9.0003377E+001
 51
1.3499873E+002
  0
LINE
  8
2D_VERDECKTE_KANTEN
  6
HIDDEN
 62
1
 10
-2.0928969
 20
1.2899996E+002
 11
-5.0000142E-001
 21
1.2899996E+002
  0
ARC
  8
2D_VERDECKTE_KANTEN
  6
HIDDEN
 62
1
 10
-5.0000048E-001
 20
1.2949996E+002
 40
4.9999906E-001
 50
2.6999989E+002
 51
3.6000011E+002
  0
LINE
  8
2D_VERDECKTE_KANTEN
  6
HIDDEN
 62
1
 10
-1.4237E-006
 20
1.2949996E+002
 11
-1.4237E-006
 21
1.5724996E+002
  0
LINE
  8
2D_MITTELLINIEN
  6
CENTERLINE
 62
1
 10
-6.0678143
 20
1.76E+002
 11
2.9508057
 21
1.76E+002
  0
LINE
  8
2D_MITTELLINIEN
  6
CENTERLINE
 62
1
 10
-6.0678143
 20
1.6E+002
 11
2.7622681
 21
1.6E+002
  0
LINE
  8
2D_MITTELLINIEN
  6
CENTERLINE
 62
1
 10
-6.0678143
 20
1.49E+002
 11
2.333313
 21
1.49E+002
  0
LINE
  8
2D_MITTELLINIEN
  6
CENTERLINE
 62
1
 10
-6.0678774
 20
1.33E+002
 11
2.7207031
 21
1.3299998E+002
  0
LINE
  8
2D_VERDECKTE_KANTEN
  6
HIDDEN
 62
1
 10
-5.0
 20
1.3849998E+002
 11
-2.0
 21
1.3549998E+002
  0
LINE
  8
2D_VERDECKTE_KANTEN
  6
HIDDEN
 62
1
 10
-2.0
 20
1.3549998E+002
 11
-2.0
 21
1.3049998E+002
  0
LINE
  8
2D_VERDECKTE_KANTEN
  6
HIDDEN
 62
1
 10
-2.0
 20
1.3049998E+002
 11
-4.1999512
 21
1.2829997E+002
  0
LINE
  8
2D_VERDECKTE_KANTEN
  6
HIDDEN
 62
1
 10
-5.0
 20
1.545E+002
 11
-2.0
 21
1.515E+002
  0
LINE
  8
2D_VERDECKTE_KANTEN
  6
HIDDEN
 62
1
 10
-2.0
 20
1.515E+002
 11
-2.0
 21
1.465E+002
  0
LINE
  8
2D_VERDECKTE_KANTEN
  6
HIDDEN
 62
1
 10
-2.0
 20
1.465E+002
 11
-5.0
 21
1.435E+002
  0
LINE
  8
2D_VERDECKTE_KANTEN
  6
HIDDEN
 62
1
 10
-2.0
 20
1.465E+002
 11
0.0
 21
1.465E+002
  0
LINE
  8
2D_VERDECKTE_KANTEN
  6
HIDDEN
 62
1
 10
0.0
 20
1.515E+002
 11
-2.0
 21
1.515E+002
  0
LINE
  8
2D_VERDECKTE_KANTEN
  6
HIDDEN
 62
1
 10
-2.0
 20
1.355E+002
 11
0.0
 21
1.355E+002
  0
LINE
  8
2D_VERDECKTE_KANTEN
  6
HIDDEN
 62
1
 10
0.0
 20
1.305E+002
 11
-2.0
 21
1.305E+002
  0
LINE
  8
2D_VERDECKTE_KANTEN
  6
HIDDEN
 62
1
 10
-5.0
 20
1.815E+002
 11
-2.0
 21
1.785E+002
  0
LINE
  8
2D_VERDECKTE_KANTEN
  6
HIDDEN
 62
1
 10
-2.0
 20
1.785E+002
 11
-2.0
 21
1.735E+002
  0
LINE
  8
2D_VERDECKTE_KANTEN
  6
HIDDEN
 62
1
 10
-2.0
 20
1.735E+002
 11
-5.0
 21
1.705E+002
  0
LINE
  8
2D_VERDECKTE_KANTEN
  6
HIDDEN
 62
1
 10
-2.0
 20
1.785E+002
 11
0.0
 21
1.785E+002
  0
LINE
  8
2D_VERDECKTE_KANTEN
  6
HIDDEN
 62
1
 10
0.0
 20
1.735E+002
 11
-2.0
 21
1.735E+002
  0
LINE
  8
2D_VERDECKTE_KANTEN
  6
HIDDEN
 62
1
 10
-5.0
 20
1.655E+002
 11
-2.0
 21
1.625E+002
  0
LINE
  8
2D_VERDECKTE_KANTEN
  6
HIDDEN
 62
1
 10
-2.0
 20
1.625E+002
 11
-2.0
 21
1.575E+002
  0
LINE
  8
2D_VERDECKTE_KANTEN
  6
HIDDEN
 62
1
 10
-2.0
 20
1.575E+002
 11
-5.0
 21
1.545E+002
  0
LINE
  8
2D_VERDECKTE_KANTEN
  6
HIDDEN
 62
1
 10
-2.0
 20
1.625E+002
 11
0.0
 21
1.625E+002
  0
LINE
  8
2D_VERDECKTE_KANTEN
  6
HIDDEN
 62
1
 10
0.0
 20
1.575E+002
 11
-2.0
 21
1.575E+002
  0
LINE
  8
2D_SICHTBARE_KANTEN
  6
CONTINUOUS
 62
40
 10
0.0
 20
1.2724998E+002
 11
0.0
 21
1.8725E+002
  0
LINE
  8
2D_SICHTBARE_KANTEN
  6
CONTINUOUS
 62
40
 10
0.0
 20
1.8725E+002
 11
-4.9963135E+001
 21
1.8725E+002
  0
ARC
  8
2D_SICHTBARE_KANTEN
  6
CONTINUOUS
 62
40
 10
-4.9963122E+001
 20
1.8424999E+002
 40
3.0000131
 50
9.0000238E+001
 51
1.7996303E+002
  0
LINE
  8
2D_SICHTBARE_KANTEN
  6
CONTINUOUS
 62
40
 10
-5.2963135E+001
 20
1.8425192E+002
 11
-5.2998047E+001
 21
1.3025192E+002
  0
ARC
  8
2D_SICHTBARE_KANTEN
  6
CONTINUOUS
 62
40
 10
-4.999804E+001
 20
1.3024998E+002
 40
3.0000076
 50
1.7996284E+002
 51
2.6999987E+002
  0
LINE
  8
2D_SICHTBARE_KANTEN
  6
CONTINUOUS
 62
40
 10
-4.9998047E+001
 20
1.2724997E+002
 11
0.0
 21
1.2724998E+002
  0
LINE
  8
2D_SICHTBARE_KANTEN
  6
CONTINUOUS
 62
40
 10
-1.7000001E+001
 20
1.9549995E+002
 11
-2.0554217E+001
 21
1.9549995E+002
  0
LINE
  8
2D_BEMASSUNG
  6
CENTERLINE
 62
150
 10
-1.4237E-006
 20
2.165E+002
 11
-1.4237E-006
 21
2.115E+002
  0
LINE
  8
2D_MITTELLINIEN
  6
CENTERLINE
 62
1
 10
2.5597487
 20
2.14E+002
 11
-2.9500001E+001
 21
2.14E+002
  0
LINE
  8
2D_SICHTBARE_KANTEN
  6
CONTINUOUS
 62
40
 10
-2.2000066E+001
 20
2.04E+002
 11
-2.2000066E+001
 21
2.0199995E+002
  0
LINE
  8
2D_SICHTBARE_KANTEN
  6
CONTINUOUS
 62
40
 10
-2.2000066E+001
 20
2.0199995E+002
 11
-3.9000066E+001
 21
2.0199995E+002
  0
LINE
  8
2D_SICHTBARE_KANTEN
  6
CONTINUOUS
 62
40
 10
-3.9000066E+001
 20
2.0199995E+002
 11
-3.9000066E+001
 21
2.04E+002
  0
LINE
  8
2D_SICHTBARE_KANTEN
  6
CONTINUOUS
 62
40
 10
-3.5475042E+001
 20
2.0145001E+002
 11
-3.5475042E+001
 21
2.0199995E+002
  0
LINE
  8
2D_SICHTBARE_KANTEN
  6
CONTINUOUS
 62
40
 10
-3.5475042E+001
 20
2.0199995E+002
 11
-3.5475042E+001
 21
2.0049996E+002
  0
LINE
  8
2D_SICHTBARE_KANTEN
  6
CONTINUOUS
 62
40
 10
-2.5524969E+001
 20
2.0145001E+002
 11
-2.5524969E+001
 21
2.0199995E+002
  0
LINE
  8
2D_SICHTBARE_KANTEN
  6
CONTINUOUS
 62
40
 10
-2.5524969E+001
 20
2.0199995E+002
 11
-2.5525017E+001
 21
2.0049996E+002
  0
CIRCLE
  8
3D_SICHTBARE_KANTEN
  6
CONTINUOUS
 62
40
 10
-3.3E+001
 20
1.4875192E+002
 40
1.5
  0
CIRCLE
  8
3D_SICHTBARE_KANTEN
  6
CONTINUOUS
 62
40
 10
-7.5
 20
1.7425192E+002
 40
1.5
  0
CIRCLE
  8
3D_SICHTBARE_KANTEN
  6
CONTINUOUS
 62
40
 10
-1.6E+001
 20
1.7425192E+002
 40
1.5
  0
CIRCLE
  8
3D_SICHTBARE_KANTEN
  6
CONTINUOUS
 62
40
 10
-2.45E+001
 20
1.7425192E+002
 40
1.5
  0
CIRCLE
  8
3D_SICHTBARE_KANTEN
  6
CONTINUOUS
 62
40
 10
-3.3E+001
 20
1.7425192E+002
 40
1.5
  0
CIRCLE
  8
3D_SICHTBARE_KANTEN
  6
CONTINUOUS
 62
40
 10
-4.15E+001
 20
1.7425192E+002
 40
1.5
  0
CIRCLE
  8
3D_SICHTBARE_KANTEN
  6
CONTINUOUS
 62
40
 10
-7.5
 20
1.6575192E+002
 40
1.5
  0
CIRCLE
  8
3D_SICHTBARE_KANTEN
  6
CONTINUOUS
 62
40
 10
-1.6E+001
 20
1.6575192E+002
 40
1.5
  0
CIRCLE
  8
3D_SICHTBARE_KANTEN
  6
CONTINUOUS
 62
40
 10
-2.45E+001
 20
1.6575192E+002
 40
1.5
  0
CIRCLE
  8
3D_SICHTBARE_KANTEN
  6
CONTINUOUS
 62
40
 10
-3.3E+001
 20
1.6575192E+002
 40
1.5
  0
CIRCLE
  8
3D_SICHTBARE_KANTEN
  6
CONTINUOUS
 62
40
 10
-4.15E+001
 20
1.6575192E+002
 40
1.5
  0
CIRCLE
  8
3D_SICHTBARE_KANTEN
  6
CONTINUOUS
 62
40
 10
-7.5
 20
1.5725192E+002
 40
1.5
  0
CIRCLE
  8
3D_SICHTBARE_KANTEN
  6
CONTINUOUS
 62
40
 10
-1.6E+001
 20
1.5725192E+002
 40
1.5
  0
CIRCLE
  8
3D_SICHTBARE_KANTEN
  6
CONTINUOUS
 62
40
 10
-2.45E+001
 20
1.5725192E+002
 40
1.5
  0
CIRCLE
  8
3D_SICHTBARE_KANTEN
  6
CONTINUOUS
 62
40
 10
-3.3E+001
 20
1.5725192E+002
 40
1.5
  0
CIRCLE
  8
3D_SICHTBARE_KANTEN
  6
CONTINUOUS
 62
40
 10
-4.15E+001
 20
1.5725192E+002
 40
1.5
  0
CIRCLE
  8
3D_SICHTBARE_KANTEN
  6
CONTINUOUS
 62
40
 10
-7.5
 20
1.4875192E+002
 40
1.5
  0
CIRCLE
  8
3D_SICHTBARE_KANTEN
  6
CONTINUOUS
 62
40
 10
-1.6E+001
 20
1.4875192E+002
 40
1.5
  0
CIRCLE
  8
3D_SICHTBARE_KANTEN
  6
CONTINUOUS
 62
40
 10
-2.45E+001
 20
1.4875192E+002
 40
1.5
  0
CIRCLE
  8
3D_SICHTBARE_KANTEN
  6
CONTINUOUS
 62
40
 10
-4.15E+001
 20
1.4875192E+002
 40
1.5
  0
CIRCLE
  8
3D_SICHTBARE_KANTEN
  6
CONTINUOUS
 62
40
 10
-7.5
 20
1.4025192E+002
 40
1.5
  0
CIRCLE
  8
3D_SICHTBARE_KANTEN
  6
CONTINUOUS
 62
40
 10
-1.6E+001
 20
1.4025192E+002
 40
1.5
  0
CIRCLE
  8
3D_SICHTBARE_KANTEN
  6
CONTINUOUS
 62
40
 10
-2.45E+001
 20
1.4025192E+002
 40
1.5
  0
CIRCLE
  8
3D_SICHTBARE_KANTEN
  6
CONTINUOUS
 62
40
 10
-3.3E+001
 20
1.4025192E+002
 40
1.5
  0
CIRCLE
  8
3D_SICHTBARE_KANTEN
  6
CONTINUOUS
 62
40
 10
-4.15E+001
 20
1.4025192E+002
 40
1.5
  0
LINE
  8
3D_SICHTBARE_KANTEN
  6
CONTINUOUS
 62
40
 10
-2.3670844E+001
 20
1.3900192E+002
 11
-2.3714406E+001
 21
1.3900192E+002
  0
ARC
  8
3D_SICHTBARE_KANTEN
  6
CONTINUOUS
 62
40
 10
-2.9E+001
 20
1.5725192E+002
 40
1.9E+001
 50
2.8614127E+002
 51
2.8615216E+002
  0
LINE
  8
2D_SICHTBARE_KANTEN
  6
CONTINUOUS
 62
40
 10
-4.1500066E+001
 20
2.0049996E+002
 11
-4.1500066E+001
 21
1.9549995E+002
  0
LINE
  8
2D_SICHTBARE_KANTEN
  6
CONTINUOUS
 62
40
 10
5.0E+001
 20
2.15E+002
 11
5.0E+001
 21
0.0
  0
LINE
  8
2D_SICHTBARE_KANTEN
  6
CONTINUOUS
 62
40
 10
0.0
 20
2.0E+002
 11
0.0
 21
0.0
  0
LINE
  8
2D_SICHTBARE_KANTEN
  6
CONTINUOUS
 62
40
 10
5.0E+001
 20
2.15E+002
 11
3.5E+001
 21
2.15E+002
  0
LINE
  8
2D_SICHTBARE_KANTEN
  6
CONTINUOUS
 62
40
 10
5.0E+001
 20
2.19E+002
 11
3.5E+001
 21
2.19E+002
  0
LINE
  8
2D_SICHTBARE_KANTEN
  6
CONTINUOUS
 62
40
 10
5.0E+001
 20
2.89E+002
 11
5.0E+001
 21
2.19E+002
  0
LINE
  8
2D_SICHTBARE_KANTEN
  6
CONTINUOUS
 62
40
 10
-1.5E+001
 20
2.888259E+002
 11
-1.5E+001
 21
2.04E+002
  0
LINE
  8
2D_MITTELLINIEN
  6
CENTERLINE
 62
1
 10
6.6342387E+001
 20
0.0
 11
-1.7003785E+001
 21
0.0
  0
INSERT
  2
44
  8
2D_SYMBOLE
 10
5.75E+001
 20
9.5E+001
 41
1.0
 43
1.0
 42
-1.0
 50
1.8E+002
  0
LINE
  8
2D_SICHTBARE_KANTEN
  6
CONTINUOUS
 62
40
 10
3.5E+001
 20
2.0E+002
 11
0.0
 21
2.0E+002
  0
LINE
  8
2D_SICHTBARE_KANTEN
  6
CONTINUOUS
 62
40
 10
3.5E+001
 20
2.15E+002
 11
3.5E+001
 21
2.0E+002
  0
LINE
  8
2D_SICHTBARE_KANTEN
  6
CONTINUOUS
 62
40
 10
3.5E+001
 20
2.15E+002
 11
3.5E+001
 21
2.19E+002
  0
LINE
  8
99
  6
CONTINUOUS
 62
1
 10
0.0
 20
1.775E+002
 11
1.1E+001
 21
1.775E+002
  0
LINE
  8
99
  6
CONTINUOUS
 62
1
 10
1.1E+001
 20
1.745E+002
 11
0.0
 21
1.745E+002
  0
LINE
  8
2D_SICHTBARE_KANTEN
  6
CONTINUOUS
 62
40
 10
0.0
 20
1.785E+002
 11
1.1E+001
 21
1.785E+002
  0
LINE
  8
2D_SICHTBARE_KANTEN
  6
CONTINUOUS
 62
40
 10
1.1E+001
 20
1.785E+002
 11
1.1E+001
 21
1.735E+002
  0
LINE
  8
2D_SICHTBARE_KANTEN
  6
CONTINUOUS
 62
40
 10
1.1E+001
 20
1.735E+002
 11
0.0
 21
1.735E+002
  0
LINE
  8
99
  6
CONTINUOUS
 62
1
 10
-1.4237E-006
 20
1.3449999E+002
 11
1.0999999E+001
 21
1.3449999E+002
  0
LINE
  8
99
  6
CONTINUOUS
 62
1
 10
1.0999999E+001
 20
1.3149999E+002
 11
-1.4237E-006
 21
1.3149999E+002
  0
LINE
  8
2D_SICHTBARE_KANTEN
  6
CONTINUOUS
 62
40
 10
-1.4237E-006
 20
1.3549999E+002
 11
1.0999999E+001
 21
1.3549999E+002
  0
LINE
  8
2D_SICHTBARE_KANTEN
  6
CONTINUOUS
 62
40
 10
1.0999999E+001
 20
1.3549999E+002
 11
1.0999999E+001
 21
1.3049999E+002
  0
LINE
  8
2D_SICHTBARE_KANTEN
  6
CONTINUOUS
 62
40
 10
1.0999999E+001
 20
1.3049999E+002
 11
-1.4237E-006
 21
1.3049999E+002
  0
LINE
  8
2D_MITTELLINIEN
  6
CENTERLINE
 62
1
 10
-7.6777358
 20
1.3299999E+002
 11
1.2781844E+001
 21
1.3299999E+002
  0
LINE
  8
2D_MITTELLINIEN
  6
CENTERLINE
 62
1
 10
-7.5410156
 20
1.76E+002
 11
1.5585978E+001
 21
1.76E+002
  0
LINE
  8
2D_SICHTBARE_KANTEN
  6
CONTINUOUS
 62
40
 10
5.0E+001
 20
2.89E+002
 11
-1.5E+001
 21
2.89E+002
  0
LINE
  8
2D_SICHTBARE_KANTEN
  6
CONTINUOUS
 62
40
 10
-1.5E+001
 20
2.04E+002
 11
3.5E+001
 21
2.04E+002
  0
DIMENSION
  8
2D_BEMASSUNG
  6
CONTINUOUS
 62
1
  1
max.26
  2
*D1439
  3
DSTYLE1
 10
-1.5E+001
 20
3.1354652E+002
 11
-4.0948708E+001
 21
3.2004852E+002
 70
128
 13
0.0
 23
2.0E+002
 14
-1.5E+001
 24
2.888259E+002
 40
1.0E+001
 50
0.0
1001
ACAD
1000
DSTYLE
1002
{
1070
173
1070
0
1070
5
1000
_AH13
1002
}
  0
DIMENSION
  8
2D_BEMASSUNG
  6
CONTINUOUS
 62
1
  2
*D1440
  3
DSTYLE1
 10
9.4397289E+001
 20
1.3299999E+002
 11
8.7895289E+001
 21
1.5439195E+002
 70
128
 13
1.5585978E+001
 23
1.76E+002
 14
1.2781844E+001
 24
1.3299999E+002
 40
1.0E+001
 50
9.0E+001
1001
ACAD
1000
DSTYLE
1002
{
1070
173
1070
0
1070
5
1000
_AH13
1002
}
  0
DIMENSION
  8
2D_BEMASSUNG
  6
CONTINUOUS
 62
1
  2
*D1441
  3
DSTYLE1
 10
9.4625172E+001
 20
2.04E+002
 11
8.8123172E+001
 21
1.9063823E+002
 70
128
 13
1.5585978E+001
 23
1.76E+002
 14
3.5E+001
 24
2.04E+002
 40
1.0E+001
 50
9.0E+001
1001
ACAD
1000
DSTYLE
1002
{
1070
173
1070
0
1070
5
1000
_AH13
1002
}
  0
DIMENSION
  8
2D_BEMASSUNG
  6
CONTINUOUS
 62
1
  2
*D1442
  3
DSTYLE1
 10
1.1941388E+002
 20
2.14E+002
 11
1.1291187E+002
 21
1.7737103E+002
 70
128
 13
1.2781844E+001
 23
1.3299999E+002
 14
-1.016037
 24
2.14E+002
 40
1.0E+001
 50
9.0E+001
1001
ACAD
1000
DSTYLE
1002
{
1070
173
1070
0
1070
5
1000
_AH13
1002
}
  0
LINE
  8
2D_MITTELLINIEN
  6
CENTERLINE
 62
1
 10
5.75498E-001
 20
2.14E+002
 11
-4.45E+001
 21
2.14E+002
  0
LINE
  8
2D_SICHTBARE_KANTEN
  6
CONTINUOUS
 62
40
 10
-1.0
 20
2.165E+002
 11
-1.5E+001
 21
2.165E+002
  0
LINE
  8
2D_SICHTBARE_KANTEN
  6
CONTINUOUS
 62
40
 10
-1.0
 20
2.115E+002
 11
-1.5E+001
 21
2.115E+002
  0
LINE
  8
2D_SICHTBARE_KANTEN
  6
CONTINUOUS
 62
40
 10
-1.0
 20
2.165E+002
 11
-1.0
 21
2.115E+002
  0
LINE
  8
2D_SICHTBARE_KANTEN
  6
CONTINUOUS
 62
1
 10
-1.0
 20
2.16E+002
 11
-1.5E+001
 21
2.16E+002
  0
LINE
  8
2D_SICHTBARE_KANTEN
  6
CONTINUOUS
 62
1
 10
-1.0
 20
2.12E+002
 11
-1.5E+001
 21
2.12E+002
  0
ARC
  8
3D_SICHTBARE_KANTEN
  6
CONTINUOUS
 62
40
 10
-4.3E+001
 20
2.21E+002
 40
3.0
 50
8.9999987E+001
 51
1.8000001E+002
  0
ARC
  8
3D_SICHTBARE_KANTEN
  6
CONTINUOUS
 62
40
 10
-4.3E+001
 20
2.07E+002
 40
3.0
 50
1.7999999E+002
 51
2.7000001E+002
  0
LINE
  8
3D_SICHTBARE_KANTEN
  6
CONTINUOUS
 62
40
 10
-4.3E+001
 20
2.04E+002
 11
-1.5E+001
 21
2.04E+002
  0
LINE
  8
3D_SICHTBARE_KANTEN
  6
CONTINUOUS
 62
40
 10
-4.6E+001
 20
2.21E+002
 11
-4.6E+001
 21
2.07E+002
  0
LINE
  8
3D_SICHTBARE_KANTEN
  6
CONTINUOUS
 62
40
 10
-1.5E+001
 20
2.24E+002
 11
-4.3E+001
 21
2.24E+002
  0
LINE
  8
3D_SICHTBARE_KANTEN
  6
CONTINUOUS
 62
1
 10
-4.3E+001
 20
2.215E+002
 11
-1.5E+001
 21
2.215E+002
  0
ARC
  8
3D_SICHTBARE_KANTEN
  6
CONTINUOUS
 62
1
 10
-4.3E+001
 20
2.21E+002
 40
5.0E-001
 50
9.0E+001
 51
1.8E+002
  0
LINE
  8
3D_SICHTBARE_KANTEN
  6
CONTINUOUS
 62
1
 10
-4.35E+001
 20
2.07E+002
 11
-4.35E+001
 21
2.21E+002
  0
ARC
  8
3D_SICHTBARE_KANTEN
  6
CONTINUOUS
 62
1
 10
-4.3E+001
 20
2.07E+002
 40
5.0E-001
 50
1.8E+002
 51
2.7E+002
  0
LINE
  8
3D_SICHTBARE_KANTEN
  6
CONTINUOUS
 62
1
 10
-1.5E+001
 20
2.065E+002
 11
-4.3E+001
 21
2.065E+002
  0
LINE
  8
3D_SICHTBARE_KANTEN
  6
CONTINUOUS
 62
1
 10
-4.3E+001
 20
2.055E+002
 11
-1.5E+001
 21
2.055E+002
  0
ARC
  8
3D_SICHTBARE_KANTEN
  6
CONTINUOUS
 62
1
 10
-4.3E+001
 20
2.07E+002
 40
1.5
 50
1.8E+002
 51
2.7E+002
  0
LINE
  8
3D_SICHTBARE_KANTEN
  6
CONTINUOUS
 62
1
 10
-4.45E+001
 20
2.21E+002
 11
-4.45E+001
 21
2.07E+002
  0
ARC
  8
3D_SICHTBARE_KANTEN
  6
CONTINUOUS
 62
1
 10
-4.3E+001
 20
2.21E+002
 40
1.5
 50
9.0E+001
 51
1.8E+002
  0
LINE
  8
3D_SICHTBARE_KANTEN
  6
CONTINUOUS
 62
1
 10
-1.5E+001
 20
2.225E+002
 11
-4.3E+001
 21
2.225E+002
  0
LINE
  8
3D_SICHTBARE_KANTEN
  6
CONTINUOUS
 62
40
 10
-1.5E+001
 20
2.237E+002
 11
-1.5E+001
 21
2.24E+002
  0
LINE
  8
3D_SICHTBARE_KANTEN
  6
CONTINUOUS
 62
40
 10
-1.5E+001
 20
2.04E+002
 11
-1.5E+001
 21
2.043E+002
  0
LINE
  8
3D_SICHTBARE_KANTEN
  6
CONTINUOUS
 62
40
 10
-1.5E+001
 20
2.043E+002
 11
-1.5E+001
 21
2.055E+002
  0
LINE
  8
3D_SICHTBARE_KANTEN
  6
CONTINUOUS
 62
1
 10
-1.5E+001
 20
2.055E+002
 11
-1.5E+001
 21
2.065E+002
  0
LINE
  8
3D_SICHTBARE_KANTEN
  6
CONTINUOUS
 62
40
 10
-1.5E+001
 20
2.065E+002
 11
-1.5E+001
 21
2.215E+002
  0
LINE
  8
3D_SICHTBARE_KANTEN
  6
CONTINUOUS
 62
1
 10
-1.5E+001
 20
2.215E+002
 11
-1.5E+001
 21
2.225E+002
  0
LINE
  8
3D_SICHTBARE_KANTEN
  6
CONTINUOUS
 62
40
 10
-1.5E+001
 20
2.225E+002
 11
-1.5E+001
 21
2.237E+002
  0
POINT
  8
Drafting_Hidden_Entities
  6
CONTINUOUS
 62
1
 10
0.0
 20
0.0
  0
ENDBLK
  0
BLOCK
  2
2
 10
0.0
 20
0.0
 70
0
  0
LINE
  8
99
  6
CONTINUOUS
 62
1
 10
0.0
 20
-3.65E+001
 11
1.1E+001
 21
-3.65E+001
  0
LINE
  8
99
  6
CONTINUOUS
 62
1
 10
1.1E+001
 20
-3.95E+001
 11
0.0
 21
-3.95E+001
  0
LINE
  8
2D_SICHTBARE_KANTEN
  6
CONTINUOUS
 62
40
 10
0.0
 20
-3.55E+001
 11
1.1E+001
 21
-3.55E+001
  0
LINE
  8
2D_SICHTBARE_KANTEN
  6
CONTINUOUS
 62
40
 10
1.1E+001
 20
-3.55E+001
 11
1.1E+001
 21
-4.05E+001
  0
LINE
  8
2D_SICHTBARE_KANTEN
  6
CONTINUOUS
 62
40
 10
1.1E+001
 20
-4.05E+001
 11
0.0
 21
-4.05E+001
  0
LINE
  8
2D_MITTELLINIEN
  6
CENTERLINE
 62
1
 10
-7.6777344
 20
-3.8E+001
 11
1.2781845E+001
 21
-3.8E+001
  0
TEXT
  8
2D_TEXT
  6
CONTINUOUS
 62
150
 10
-1.6293607E+001
 20
-4.2579153E+001
 40
3.5
  1
M5x16
 41
6.3000002E-001
 72
1
 11
-2.1806107E+001
 21
-4.4329153E+001
 73
2
  0
LINE
  8
99
  6
CONTINUOUS
 62
1
 10
-2.7824655E+001
 20
-4.7458798E+001
 11
-1.6389413E+001
 21
-4.7458798E+001
  0
LINE
  8
99
  6
CONTINUOUS
 62
1
 10
-1.6389413E+001
 20
-4.7458798E+001
 11
1.666232
 21
-5.4000014E+001
  0
LINE
  8
99
  6
CONTINUOUS
 62
1
 10
-1.4237E-006
 20
-5.2500011E+001
 11
1.0999999E+001
 21
-5.2500011E+001
  0
LINE
  8
99
  6
CONTINUOUS
 62
1
 10
1.0999999E+001
 20
-5.5500011E+001
 11
-1.4237E-006
 21
-5.5500011E+001
  0
LINE
  8
2D_SICHTBARE_KANTEN
  6
CONTINUOUS
 62
40
 10
-1.4237E-006
 20
-5.1500011E+001
 11
1.0999999E+001
 21
-5.1500011E+001
  0
LINE
  8
2D_SICHTBARE_KANTEN
  6
CONTINUOUS
 62
40
 10
1.0999999E+001
 20
-5.1500011E+001
 11
1.0999999E+001
 21
-5.6500011E+001
  0
LINE
  8
2D_SICHTBARE_KANTEN
  6
CONTINUOUS
 62
40
 10
1.0999999E+001
 20
-5.6500011E+001
 11
-1.4237E-006
 21
-5.6500011E+001
  0
LINE
  8
2D_MITTELLINIEN
  6
CENTERLINE
 62
1
 10
-7.6777358
 20
-5.4000011E+001
 11
1.2781844E+001
 21
-5.4000011E+001
  0
LINE
  8
99
  6
CONTINUOUS
 62
1
 10
0.0
 20
4.0
 11
7.0903216
 21
4.0
  0
LINE
  8
2D_MITTELLINIEN
  6
CENTERLINE
 62
1
 10
-2.5500005E+001
 20
-3.1317569
 11
-2.5500069E+001
 21
1.724998E+001
  0
LINE
  8
2D_SICHTBARE_KANTEN
  6
CONTINUOUS
 62
40
 10
-3.6500005E+001
 20
0.0
 11
-3.6500005E+001
 21
1.2999965E+001
  0
LINE
  8
2D_SICHTBARE_KANTEN
  6
CONTINUOUS
 62
40
 10
-1.4500001E+001
 20
7.9999582
 11
-1.4500001E+001
 21
0.0
  0
ARC
  8
2D_VERDECKTE_KANTEN
  6
HIDDEN
 62
1
 10
-4.9998302E-001
 20
-2.0000234
 40
4.999816E-001
 50
3.5999789E+002
 51
4.5000211E+002
  0
LINE
  8
2D_VERDECKTE_KANTEN
  6
HIDDEN
 62
1
 10
-5.0000142E-001
 20
-1.5000418
 11
-2.0928969
 21
-1.5000418
  0
ARC
  8
2D_VERDECKTE_KANTEN
  6
HIDDEN
 62
1
 10
-2.0928575
 20
-1.0000185
 40
5.0002333E-001
 50
2.2500241E+002
 51
2.6999548E+002
  0
LINE
  8
2D_VERDECKTE_KANTEN
  6
HIDDEN
 62
1
 10
-2.4464126
 20
-1.3536032
 11
-3.1535659
 21
-6.4649564E-001
  0
ARC
  8
2D_VERDECKTE_KANTEN
  6
HIDDEN
 62
1
 10
-3.5070699
 20
-9.9990518E-001
 40
4.998634E-001
 50
4.499234E+001
 51
9.0001327E+001
  0
LINE
  8
2D_VERDECKTE_KANTEN
  6
HIDDEN
 62
1
 10
-3.5070815
 20
-5.0004178E-001
 11
-3.6928725
 21
-5.0004178E-001
  0
ARC
  8
2D_VERDECKTE_KANTEN
  6
HIDDEN
 62
1
 10
-3.6929471
 20
-9.9990034E-001
 40
4.9985856E-001
 50
8.9991448E+001
 51
1.3500789E+002
  0
LINE
  8
2D_VERDECKTE_KANTEN
  6
HIDDEN
 62
1
 10
-4.0464492
 20
-6.4649564E-001
 11
-4.853517
 21
-1.4535788
  0
ARC
  8
2D_VERDECKTE_KANTEN
  6
HIDDEN
 62
1
 10
-4.5001513
 20
-1.8071078
 40
4.9985012E-001
 50
1.3498676E+002
 51
1.8000371E+002
  0
LINE
  8
2D_VERDECKTE_KANTEN
  6
HIDDEN
 62
1
 10
-5.0000014
 20
-1.8071402
 11
-5.0000014
 21
-6.3192918E+001
  0
ARC
  8
2D_VERDECKTE_KANTEN
  6
HIDDEN
 62
1
 10
-4.500042
 20
-6.319293E+001
 40
4.9995942E-001
 50
1.8000148E+002
 51
2.2500805E+002
  0
LINE
  8
2D_VERDECKTE_KANTEN
  6
HIDDEN
 62
1
 10
-4.853517
 20
-6.3546505E+001
 11
-4.0464492
 21
-6.4353588E+001
  0
ARC
  8
2D_VERDECKTE_KANTEN
  6
HIDDEN
 62
1
 10
-3.6928717
 20
-6.4000001E+001
 40
5.0004068E-001
 50
2.2500076E+002
 51
2.6999991E+002
  0
ARC
  8
2D_VERDECKTE_KANTEN
  6
HIDDEN
 62
1
 10
-3.5070975
 20
-6.4000112E+001
 40
4.9992995E-001
 50
2.7000183E+002
 51
3.150045E+002
  0
LINE
  8
2D_VERDECKTE_KANTEN
  6
HIDDEN
 62
1
 10
-3.1535659
 20
-6.4353588E+001
 11
-2.4464126
 21
-6.364648E+001
  0
ARC
  8
2D_VERDECKTE_KANTEN
  6
HIDDEN
 62
1
 10
-2.0928675
 20
-6.4000041E+001
 40
4.9999931E-001
 50
9.0003377E+001
 51
1.3499873E+002
  0
LINE
  8
2D_VERDECKTE_KANTEN
  6
HIDDEN
 62
1
 10
-2.0928969
 20
-6.3500042E+001
 11
-5.0000142E-001
 21
-6.3500042E+001
  0
ARC
  8
2D_VERDECKTE_KANTEN
  6
HIDDEN
 62
1
 10
-5.0000048E-001
 20
-6.3000043E+001
 40
4.9999906E-001
 50
2.6999989E+002
 51
3.6000011E+002
  0
LINE
  8
2D_MITTELLINIEN
  6
CENTERLINE
 62
1
 10
-7.5410156
 20
-1.1E+001
 11
2.9508057
 21
-1.1E+001
  0
LINE
  8
2D_MITTELLINIEN
  6
CENTERLINE
 62
1
 10
-7.2675781
 20
-2.7E+001
 11
2.7622681
 21
-2.7E+001
  0
LINE
  8
2D_MITTELLINIEN
  6
CENTERLINE
 62
1
 10
-7.6777344
 20
-5.4E+001
 11
2.7207031
 21
-5.4000015E+001
  0
LINE
  8
2D_VERDECKTE_KANTEN
  6
HIDDEN
 62
1
 10
-5.0
 20
-4.8500015E+001
 11
-2.0
 21
-5.1500015E+001
  0
LINE
  8
2D_VERDECKTE_KANTEN
  6
HIDDEN
 62
1
 10
-2.0
 20
-5.1500015E+001
 11
-2.0
 21
-5.6500015E+001
  0
LINE
  8
2D_VERDECKTE_KANTEN
  6
HIDDEN
 62
1
 10
-2.0
 20
-5.6500015E+001
 11
-5.0000014
 21
-5.95001E+001
  0
LINE
  8
2D_VERDECKTE_KANTEN
  6
HIDDEN
 62
1
 10
-5.0
 20
-3.25E+001
 11
-2.0
 21
-3.55E+001
  0
LINE
  8
2D_VERDECKTE_KANTEN
  6
HIDDEN
 62
1
 10
-2.0
 20
-3.55E+001
 11
-2.0
 21
-4.05E+001
  0
LINE
  8
2D_VERDECKTE_KANTEN
  6
HIDDEN
 62
1
 10
-2.0
 20
-4.05E+001
 11
-5.0
 21
-4.35E+001
  0
LINE
  8
2D_VERDECKTE_KANTEN
  6
HIDDEN
 62
1
 10
-2.0
 20
-4.05E+001
 11
0.0
 21
-4.05E+001
  0
LINE
  8
2D_VERDECKTE_KANTEN
  6
HIDDEN
 62
1
 10
0.0
 20
-3.55E+001
 11
-2.0
 21
-3.55E+001
  0
LINE
  8
2D_VERDECKTE_KANTEN
  6
HIDDEN
 62
1
 10
-2.0
 20
-5.15E+001
 11
0.0
 21
-5.15E+001
  0
LINE
  8
2D_VERDECKTE_KANTEN
  6
HIDDEN
 62
1
 10
0.0
 20
-5.65E+001
 11
-2.0
 21
-5.65E+001
  0
LINE
  8
2D_VERDECKTE_KANTEN
  6
HIDDEN
 62
1
 10
-5.0
 20
-5.5
 11
-2.0
 21
-8.5
  0
LINE
  8
2D_VERDECKTE_KANTEN
  6
HIDDEN
 62
1
 10
-2.0
 20
-8.5
 11
-2.0
 21
-1.35E+001
  0
LINE
  8
2D_VERDECKTE_KANTEN
  6
HIDDEN
 62
1
 10
-2.0
 20
-1.35E+001
 11
-5.0
 21
-1.65E+001
  0
LINE
  8
2D_VERDECKTE_KANTEN
  6
HIDDEN
 62
1
 10
-2.0
 20
-8.5
 11
0.0
 21
-8.5
  0
LINE
  8
2D_VERDECKTE_KANTEN
  6
HIDDEN
 62
1
 10
0.0
 20
-1.35E+001
 11
-2.0
 21
-1.35E+001
  0
LINE
  8
2D_VERDECKTE_KANTEN
  6
HIDDEN
 62
1
 10
-5.0
 20
-2.15E+001
 11
-2.0
 21
-2.45E+001
  0
LINE
  8
2D_VERDECKTE_KANTEN
  6
HIDDEN
 62
1
 10
-2.0
 20
-2.45E+001
 11
-2.0
 21
-2.95E+001
  0
LINE
  8
2D_VERDECKTE_KANTEN
  6
HIDDEN
 62
1
 10
-2.0
 20
-2.95E+001
 11
-5.0
 21
-3.25E+001
  0
LINE
  8
2D_VERDECKTE_KANTEN
  6
HIDDEN
 62
1
 10
-2.0
 20
-2.45E+001
 11
0.0
 21
-2.45E+001
  0
LINE
  8
2D_VERDECKTE_KANTEN
  6
HIDDEN
 62
1
 10
0.0
 20
-2.95E+001
 11
-2.0
 21
-2.95E+001
  0
LINE
  8
2D_SICHTBARE_KANTEN
  6
CONTINUOUS
 62
40
 10
0.0
 20
-6.5000015E+001
 11
0.0
 21
0.0
  0
LINE
  8
2D_SICHTBARE_KANTEN
  6
CONTINUOUS
 62
40
 10
0.0
 20
0.0
 11
-4.4E+001
 21
0.0
  0
LINE
  8
2D_SICHTBARE_KANTEN
  6
CONTINUOUS
 62
40
 10
-4.3999999E+001
 20
-6.5000029E+001
 11
0.0
 21
-6.5000015E+001
  0
LINE
  8
2D_SICHTBARE_KANTEN
  6
CONTINUOUS
 62
40
 10
-3.6500005E+001
 20
1.2999965E+001
 11
-4.5000014
 21
1.2999965E+001
  0
LINE
  8
2D_SICHTBARE_KANTEN
  6
CONTINUOUS
 62
40
 10
-4.5000014
 20
1.2999965E+001
 11
-4.5000014
 21
7.9999494
  0
LINE
  8
2D_SICHTBARE_KANTEN
  6
CONTINUOUS
 62
40
 10
-3.6500005E+001
 20
7.9999494
 11
-4.5000014
 21
7.9999494
  0
TEXT
  8
2D_TEXT
  6
CONTINUOUS
 62
150
 10
-3.8947489
 20
4.7461632E+001
 40
3.5
  1
M5x45
 41
6.3000002E-001
 72
1
 11
-9.4072491
 21
4.5711632E+001
 73
2
  0
LINE
  8
99
  6
CONTINUOUS
 62
1
 10
-1.5080799E+001
 20
4.2811818E+001
 11
-3.7336996
 21
4.2811818E+001
  0
LINE
  8
99
  6
CONTINUOUS
 62
1
 10
-3.7336996
 20
4.2811818E+001
 11
2.5597487
 21
2.7E+001
  0
LINE
  8
2D_BEMASSUNG
  6
CENTERLINE
 62
150
 10
-1.4237E-006
 20
2.95E+001
 11
-1.4237E-006
 21
2.45E+001
  0
LINE
  8
99
  6
CONTINUOUS
 62
1
 10
-1.4237E-006
 20
2.875E+001
 11
1.3983962E+001
 21
2.875E+001
  0
LINE
  8
99
  6
CONTINUOUS
 62
1
 10
-1.4237E-006
 20
2.525E+001
 11
1.3983962E+001
 21
2.525E+001
  0
LINE
  8
2D_SICHTBARE_KANTEN
  6
CONTINUOUS
 62
40
 10
-1.6038411E-002
 20
2.95E+001
 11
1.3983962E+001
 21
2.95E+001
  0
LINE
  8
2D_SICHTBARE_KANTEN
  6
CONTINUOUS
 62
40
 10
1.3983962E+001
 20
2.95E+001
 11
1.3983962E+001
 21
2.45E+001
  0
LINE
  8
2D_SICHTBARE_KANTEN
  6
CONTINUOUS
 62
40
 10
1.3983962E+001
 20
2.45E+001
 11
-1.6038411E-002
 21
2.45E+001
  0
LINE
  8
2D_MITTELLINIEN
  6
CENTERLINE
 62
1
 10
-1.5500001E+001
 20
2.0561491E+001
 11
-1.5500001E+001
 21
7.3552712
  0
LINE
  8
2D_MITTELLINIEN
  6
CENTERLINE
 62
1
 10
-3.2600221E+001
 20
2.7E+001
 11
1.6982016E+001
 21
2.7E+001
  0
LINE
  8
2D_SICHTBARE_KANTEN
  6
CONTINUOUS
 62
40
 10
-7.0000663
 20
1.7E+001
 11
-7.0000663
 21
1.5499949E+001
  0
LINE
  8
2D_SICHTBARE_KANTEN
  6
CONTINUOUS
 62
40
 10
-7.0000663
 20
1.5499949E+001
 11
-2.4000066E+001
 21
1.5499949E+001
  0
LINE
  8
2D_SICHTBARE_KANTEN
  6
CONTINUOUS
 62
40
 10
-2.4000066E+001
 20
1.5499949E+001
 11
-2.4000066E+001
 21
1.7E+001
  0
LINE
  8
2D_SICHTBARE_KANTEN
  6
CONTINUOUS
 62
40
 10
-2.0475042E+001
 20
1.4450012E+001
 11
-2.0475042E+001
 21
1.4999949E+001
  0
LINE
  8
2D_SICHTBARE_KANTEN
  6
CONTINUOUS
 62
40
 10
-2.0475042E+001
 20
1.5499949E+001
 11
-2.0475042E+001
 21
1.2999965E+001
  0
LINE
  8
2D_SICHTBARE_KANTEN
  6
CONTINUOUS
 62
40
 10
-1.0524969E+001
 20
1.4450012E+001
 11
-1.0524969E+001
 21
1.4999949E+001
  0
LINE
  8
2D_SICHTBARE_KANTEN
  6
CONTINUOUS
 62
40
 10
-1.0524953E+001
 20
1.5499949E+001
 11
-1.0525033E+001
 21
1.2999965E+001
  0
LINE
  8
2D_VERDECKTE_KANTEN
  6
HIDDEN
 62
1
 10
-3.1000001E+001
 20
3.1499989E+001
 11
-2.9000013E+001
 21
2.95E+001
  0
LINE
  8
2D_VERDECKTE_KANTEN
  6
HIDDEN
 62
1
 10
-2.9000013E+001
 20
2.95E+001
 11
-2.9000013E+001
 21
2.4499977E+001
  0
LINE
  8
2D_VERDECKTE_KANTEN
  6
HIDDEN
 62
1
 10
-2.9000013E+001
 20
2.4499977E+001
 11
-3.1000001E+001
 21
2.2499989E+001
  0
LINE
  8
2D_VERDECKTE_KANTEN
  6
HIDDEN
 62
1
 10
-2.899999E+001
 20
2.45E+001
 11
-1.6038411E-002
 21
2.45E+001
  0
LINE
  8
2D_VERDECKTE_KANTEN
  6
HIDDEN
 62
1
 10
-1.4237E-006
 20
2.95E+001
 11
-2.9000013E+001
 21
2.95E+001
  0
LINE
  8
2D_VERDECKTE_KANTEN
  6
HIDDEN
 62
1
 10
-2.4000001E+001
 20
1.7E+001
 11
-2.4000001E+001
 21
2.0E+001
  0
LINE
  8
2D_VERDECKTE_KANTEN
  6
HIDDEN
 62
1
 10
-2.4000001E+001
 20
2.0E+001
 11
-2.8000001E+001
 21
2.0E+001
  0
LINE
  8
2D_VERDECKTE_KANTEN
  6
HIDDEN
 62
1
 10
-2.8000001E+001
 20
2.0E+001
 11
-2.8000001E+001
 21
3.0E+001
  0
LINE
  8
2D_VERDECKTE_KANTEN
  6
HIDDEN
 62
1
 10
-2.8000001E+001
 20
3.0E+001
 11
-2.4000001E+001
 21
3.0E+001
  0
LINE
  8
2D_VERDECKTE_KANTEN
  6
HIDDEN
 62
1
 10
-2.4000001E+001
 20
3.0E+001
 11
-2.4000001E+001
 21
3.2E+001
  0
LINE
  8
2D_VERDECKTE_KANTEN
  6
HIDDEN
 62
1
 10
-2.4000001E+001
 20
3.2E+001
 11
-2.8000001E+001
 21
3.2E+001
  0
LINE
  8
2D_VERDECKTE_KANTEN
  6
HIDDEN
 62
1
 10
-2.8000001E+001
 20
3.2E+001
 11
-2.8000001E+001
 21
3.4E+001
  0
LINE
  8
2D_VERDECKTE_KANTEN
  6
HIDDEN
 62
1
 10
-2.8000001E+001
 20
3.4E+001
 11
-3.0000014
 21
3.4E+001
  0
LINE
  8
2D_VERDECKTE_KANTEN
  6
HIDDEN
 62
1
 10
-3.0000014
 20
3.4E+001
 11
-3.0000014
 21
3.2E+001
  0
LINE
  8
2D_VERDECKTE_KANTEN
  6
HIDDEN
 62
1
 10
-3.0000014
 20
3.2E+001
 11
-7.0000014
 21
3.2E+001
  0
LINE
  8
2D_VERDECKTE_KANTEN
  6
HIDDEN
 62
1
 10
-7.0000014
 20
3.2E+001
 11
-7.0000014
 21
3.0E+001
  0
LINE
  8
2D_VERDECKTE_KANTEN
  6
HIDDEN
 62
1
 10
-7.0000014
 20
3.0E+001
 11
-3.0000014
 21
3.0E+001
  0
LINE
  8
2D_VERDECKTE_KANTEN
  6
HIDDEN
 62
1
 10
-3.0000014
 20
3.0E+001
 11
-3.0000014
 21
2.0E+001
  0
LINE
  8
2D_VERDECKTE_KANTEN
  6
HIDDEN
 62
1
 10
-3.0000014
 20
2.0E+001
 11
-7.0000014
 21
2.0E+001
  0
LINE
  8
2D_VERDECKTE_KANTEN
  6
HIDDEN
 62
1
 10
-7.0000014
 20
2.0E+001
 11
-7.0000014
 21
1.7E+001
  0
ARC
  8
2D_SICHTBARE_KANTEN
  6
CONTINUOUS
 62
40
 10
-2.9000003E+001
 20
1.8999998E+001
 40
1.999998
 50
1.7999994E+002
 51
2.7000006E+002
  0
LINE
  8
2D_SICHTBARE_KANTEN
  6
CONTINUOUS
 62
40
 10
-3.1000001E+001
 20
1.9E+001
 11
-3.1000001E+001
 21
3.5E+001
  0
ARC
  8
2D_SICHTBARE_KANTEN
  6
CONTINUOUS
 62
40
 10
-2.9000015E+001
 20
3.5000014E+001
 40
1.9999862
 50
8.9999605E+001
 51
1.8000039E+002
  0
LINE
  8
2D_SICHTBARE_KANTEN
  6
CONTINUOUS
 62
40
 10
-2.9000001E+001
 20
3.7E+001
 11
-1.4237E-006
 21
3.7E+001
  0
LINE
  8
2D_SICHTBARE_KANTEN
  6
CONTINUOUS
 62
40
 10
-1.4237E-006
 20
3.7E+001
 11
-1.4237E-006
 21
1.7E+001
  0
LINE
  8
2D_SICHTBARE_KANTEN
  6
CONTINUOUS
 62
40
 10
-1.4237E-006
 20
1.7E+001
 11
-2.9000001E+001
 21
1.7E+001
  0
LINE
  8
2D_SICHTBARE_KANTEN
  6
CONTINUOUS
 62
40
 10
-4.7E+001
 20
-6.2000029E+001
 11
-4.7E+001
 21
-3.0
  0
LINE
  8
2D_SICHTBARE_KANTEN
  6
CONTINUOUS
 62
1
 10
0.0
 20
4.0
 11
0.0
 21
2.5E-001
  0
ARC
  8
2D_SICHTBARE_KANTEN
  6
CONTINUOUS
 62
40
 10
-4.4E+001
 20
-3.0
 40
3.0
 50
9.0E+001
 51
1.8E+002
  0
ARC
  8
2D_SICHTBARE_KANTEN
  6
CONTINUOUS
 62
40
 10
-4.4E+001
 20
-6.2000029E+001
 40
3.0
 50
1.8E+002
 51
2.7000002E+002
  0
POINT
  8
Drafting_Hidden_Entities
  6
CONTINUOUS
 62
1
 10
0.0
 20
0.0
  0
ENDBLK
  0
BLOCK
  2
36
 10
0.0
 20
0.0
 70
0
  0
LINE
  8
2D_BEMASSUNG
  6
CENTERLINE
 62
150
 10
0.0
 20
2.5
 11
0.0
 21
-2.5
  0
LINE
  8
99
  6
CONTINUOUS
 62
1
 10
0.0
 20
1.75
 11
1.3983963E+001
 21
1.75
  0
LINE
  8
99
  6
CONTINUOUS
 62
1
 10
0.0
 20
-1.75
 11
1.3983963E+001
 21
-1.75
  0
LINE
  8
2D_SICHTBARE_KANTEN
  6
CONTINUOUS
 62
40
 10
-1.6036987E-002
 20
2.5
 11
1.3983963E+001
 21
2.5
  0
LINE
  8
2D_SICHTBARE_KANTEN
  6
CONTINUOUS
 62
40
 10
1.3983963E+001
 20
2.5
 11
1.3983963E+001
 21
-2.5
  0
LINE
  8
2D_SICHTBARE_KANTEN
  6
CONTINUOUS
 62
40
 10
1.3983963E+001
 20
-2.5
 11
-1.6036987E-002
 21
-2.5
  0
LINE
  8
2D_MITTELLINIEN
  6
CENTERLINE
 62
1
 10
-3.260022E+001
 20
0.0
 11
1.6982018E+001
 21
0.0
  0
LINE
  8
2D_SICHTBARE_KANTEN
  6
CONTINUOUS
 62
40
 10
-7.0000648
 20
-1.0E+001
 11
-7.0000648
 21
-1.1500051E+001
  0
LINE
  8
2D_SICHTBARE_KANTEN
  6
CONTINUOUS
 62
40
 10
-7.0000648
 20
-1.1500051E+001
 11
-2.4000065E+001
 21
-1.1500051E+001
  0
LINE
  8
2D_SICHTBARE_KANTEN
  6
CONTINUOUS
 62
40
 10
-2.4000065E+001
 20
-1.1500051E+001
 11
-2.4000065E+001
 21
-1.0E+001
  0
ARC
  8
2D_SICHTBARE_KANTEN
  6
CONTINUOUS
 62
40
 10
-2.9000002E+001
 20
-8.000002
 40
1.999998
 50
1.7999994E+002
 51
2.7000006E+002
  0
LINE
  8
2D_SICHTBARE_KANTEN
  6
CONTINUOUS
 62
40
 10
-3.1E+001
 20
-8.0
 11
-3.1E+001
 21
8.0
  0
ARC
  8
2D_SICHTBARE_KANTEN
  6
CONTINUOUS
 62
40
 10
-2.9000014E+001
 20
8.0000138
 40
1.9999862
 50
8.9999605E+001
 51
1.8000039E+002
  0
LINE
  8
2D_SICHTBARE_KANTEN
  6
CONTINUOUS
 62
40
 10
-2.9E+001
 20
1.0E+001
 11
0.0
 21
1.0E+001
  0
LINE
  8
2D_SICHTBARE_KANTEN
  6
CONTINUOUS
 62
40
 10
0.0
 20
1.0E+001
 11
0.0
 21
-1.0E+001
  0
LINE
  8
2D_SICHTBARE_KANTEN
  6
CONTINUOUS
 62
40
 10
0.0
 20
-1.0E+001
 11
-2.9E+001
 21
-1.0E+001
  0
LINE
  8
2D_SICHTBARE_KANTEN
  6
CONTINUOUS
 62
40
 10
-1.0524951E+001
 20
-1.1500051E+001
 11
-1.0525032E+001
 21
-1.4000035E+001
  0
LINE
  8
2D_SICHTBARE_KANTEN
  6
CONTINUOUS
 62
40
 10
-2.047504E+001
 20
-1.1500051E+001
 11
-2.047504E+001
 21
-1.4000035E+001
  0
POINT
  8
Drafting_Hidden_Entities
  6
CONTINUOUS
 62
1
 10
0.0
 20
0.0
  0
ENDBLK
  0
BLOCK
  2
JJKNEW00
 10
0.0
 20
0.0
 70
0
  0
LINE
  8
2D_BEMASSUNG
  6
CENTERLINE
 62
150
 10
0.0
 20
1.465E+002
 11
0.0
 21
1.515E+002
  0
LINE
  8
2D_BEMASSUNG
  6
CENTERLINE
 62
150
 10
-1.4237E-006
 20
1.3049999E+002
 11
-1.4237E-006
 21
1.3549999E+002
  0
LINE
  8
2D_SICHTBARE_KANTEN
  6
CONTINUOUS
 62
40
 10
-1.7000001E+001
 20
1.9549995E+002
 11
-1.7000001E+001
 21
1.8725E+002
  0
LINE
  8
2D_SICHTBARE_KANTEN
  6
CONTINUOUS
 62
40
 10
-3.9000005E+001
 20
1.8725E+002
 11
-3.9000005E+001
 21
1.9549995E+002
  0
LINE
  8
2D_SICHTBARE_KANTEN
  6
CONTINUOUS
 62
40
 10
-4.1500066E+001
 20
2.0049996E+002
 11
-1.7000001E+001
 21
2.0049996E+002
  0
LINE
  8
2D_SICHTBARE_KANTEN
  6
CONTINUOUS
 62
40
 10
-4.1500066E+001
 20
1.9549995E+002
 11
-2.0554217E+001
 21
1.9549995E+002
  0
LINE
  8
2D_SICHTBARE_KANTEN
  6
CONTINUOUS
 62
40
 10
-1.7000001E+001
 20
2.0049996E+002
 11
-1.7000001E+001
 21
1.8724999E+002
  0
LINE
  8
2D_VERDECKTE_KANTEN
  6
HIDDEN
 62
1
 10
-1.4237E-006
 20
1.5724996E+002
 11
-1.4237E-006
 21
1.8499996E+002
  0
ARC
  8
2D_VERDECKTE_KANTEN
  6
HIDDEN
 62
1
 10
-4.9998302E-001
 20
1.8499998E+002
 40
4.999816E-001
 50
3.5999789E+002
 51
4.5000211E+002
  0
LINE
  8
2D_VERDECKTE_KANTEN
  6
HIDDEN
 62
1
 10
-5.0000142E-001
 20
1.8549996E+002
 11
-2.0928969
 21
1.8549996E+002
  0
ARC
  8
2D_VERDECKTE_KANTEN
  6
HIDDEN
 62
1
 10
-2.0928575
 20
1.8599998E+002
 40
5.0002333E-001
 50
2.2500241E+002
 51
2.6999548E+002
  0
LINE
  8
2D_VERDECKTE_KANTEN
  6
HIDDEN
 62
1
 10
-2.4464126
 20
1.856464E+002
 11
-3.1535659
 21
1.863535E+002
  0
ARC
  8
2D_VERDECKTE_KANTEN
  6
HIDDEN
 62
1
 10
-3.5070699
 20
1.8600009E+002
 40
4.998634E-001
 50
4.499234E+001
 51
9.0001327E+001
  0
LINE
  8
2D_VERDECKTE_KANTEN
  6
HIDDEN
 62
1
 10
-3.5070815
 20
1.8649996E+002
 11
-3.6928725
 21
1.8649996E+002
  0
ARC
  8
2D_VERDECKTE_KANTEN
  6
HIDDEN
 62
1
 10
-3.6929471
 20
1.860001E+002
 40
4.9985856E-001
 50
8.9991448E+001
 51
1.3500789E+002
  0
LINE
  8
2D_VERDECKTE_KANTEN
  6
HIDDEN
 62
1
 10
-4.0464492
 20
1.863535E+002
 11
-4.853517
 21
1.8554642E+002
  0
ARC
  8
2D_VERDECKTE_KANTEN
  6
HIDDEN
 62
1
 10
-4.5001513
 20
1.8519289E+002
 40
4.9985012E-001
 50
1.3498676E+002
 51
1.8000371E+002
  0
LINE
  8
2D_VERDECKTE_KANTEN
  6
HIDDEN
 62
1
 10
-5.0000014
 20
1.8519286E+002
 11
-5.0000014
 21
1.2930706E+002
  0
ARC
  8
2D_VERDECKTE_KANTEN
  6
HIDDEN
 62
1
 10
-4.500042
 20
1.2930707E+002
 40
4.9995942E-001
 50
1.8000148E+002
 51
2.2500805E+002
  0
LINE
  8
2D_VERDECKTE_KANTEN
  6
HIDDEN
 62
1
 10
-4.853517
 20
1.289535E+002
 11
-4.0464492
 21
1.2814641E+002
  0
ARC
  8
2D_VERDECKTE_KANTEN
  6
HIDDEN
 62
1
 10
-3.6928717
 20
1.285E+002
 40
5.0004068E-001
 50
2.2500076E+002
 51
2.6999991E+002
  0
LINE
  8
2D_VERDECKTE_KANTEN
  6
HIDDEN
 62
1
 10
-3.6928725
 20
1.2799996E+002
 11
-3.5070815
 21
1.2799996E+002
  0
ARC
  8
2D_VERDECKTE_KANTEN
  6
HIDDEN
 62
1
 10
-3.5070975
 20
1.2849989E+002
 40
4.9992995E-001
 50
2.7000183E+002
 51
3.150045E+002
  0
LINE
  8
2D_VERDECKTE_KANTEN
  6
HIDDEN
 62
1
 10
-3.1535659
 20
1.2814641E+002
 11
-2.4464126
 21
1.2885352E+002
  0
ARC
  8
2D_VERDECKTE_KANTEN
  6
HIDDEN
 62
1
 10
-2.0928675
 20
1.2849996E+002
 40
4.9999931E-001
 50
9.0003377E+001
 51
1.3499873E+002
  0
LINE
  8
2D_VERDECKTE_KANTEN
  6
HIDDEN
 62
1
 10
-2.0928969
 20
1.2899996E+002
 11
-5.0000142E-001
 21
1.2899996E+002
  0
ARC
  8
2D_VERDECKTE_KANTEN
  6
HIDDEN
 62
1
 10
-5.0000048E-001
 20
1.2949996E+002
 40
4.9999906E-001
 50
2.6999989E+002
 51
3.6000011E+002
  0
LINE
  8
2D_VERDECKTE_KANTEN
  6
HIDDEN
 62
1
 10
-1.4237E-006
 20
1.2949996E+002
 11
-1.4237E-006
 21
1.5724996E+002
  0
LINE
  8
2D_MITTELLINIEN
  6
CENTERLINE
 62
1
 10
-6.0678143
 20
1.76E+002
 11
2.9508057
 21
1.76E+002
  0
LINE
  8
2D_MITTELLINIEN
  6
CENTERLINE
 62
1
 10
-6.0678143
 20
1.6E+002
 11
2.7622681
 21
1.6E+002
  0
LINE
  8
2D_MITTELLINIEN
  6
CENTERLINE
 62
1
 10
-6.0678143
 20
1.49E+002
 11
2.333313
 21
1.49E+002
  0
LINE
  8
2D_MITTELLINIEN
  6
CENTERLINE
 62
1
 10
-6.0678774
 20
1.33E+002
 11
2.7207031
 21
1.3299998E+002
  0
LINE
  8
2D_VERDECKTE_KANTEN
  6
HIDDEN
 62
1
 10
-5.0
 20
1.3849998E+002
 11
-2.0
 21
1.3549998E+002
  0
LINE
  8
2D_VERDECKTE_KANTEN
  6
HIDDEN
 62
1
 10
-2.0
 20
1.3549998E+002
 11
-2.0
 21
1.3049998E+002
  0
LINE
  8
2D_VERDECKTE_KANTEN
  6
HIDDEN
 62
1
 10
-2.0
 20
1.3049998E+002
 11
-4.1999512
 21
1.2829997E+002
  0
LINE
  8
2D_VERDECKTE_KANTEN
  6
HIDDEN
 62
1
 10
-5.0
 20
1.545E+002
 11
-2.0
 21
1.515E+002
  0
LINE
  8
2D_VERDECKTE_KANTEN
  6
HIDDEN
 62
1
 10
-2.0
 20
1.515E+002
 11
-2.0
 21
1.465E+002
  0
LINE
  8
2D_VERDECKTE_KANTEN
  6
HIDDEN
 62
1
 10
-2.0
 20
1.465E+002
 11
-5.0
 21
1.435E+002
  0
LINE
  8
2D_VERDECKTE_KANTEN
  6
HIDDEN
 62
1
 10
-2.0
 20
1.465E+002
 11
0.0
 21
1.465E+002
  0
LINE
  8
2D_VERDECKTE_KANTEN
  6
HIDDEN
 62
1
 10
0.0
 20
1.515E+002
 11
-2.0
 21
1.515E+002
  0
LINE
  8
2D_VERDECKTE_KANTEN
  6
HIDDEN
 62
1
 10
-2.0
 20
1.355E+002
 11
0.0
 21
1.355E+002
  0
LINE
  8
2D_VERDECKTE_KANTEN
  6
HIDDEN
 62
1
 10
0.0
 20
1.305E+002
 11
-2.0
 21
1.305E+002
  0
LINE
  8
2D_VERDECKTE_KANTEN
  6
HIDDEN
 62
1
 10
-5.0
 20
1.815E+002
 11
-2.0
 21
1.785E+002
  0
LINE
  8
2D_VERDECKTE_KANTEN
  6
HIDDEN
 62
1
 10
-2.0
 20
1.785E+002
 11
-2.0
 21
1.735E+002
  0
LINE
  8
2D_VERDECKTE_KANTEN
  6
HIDDEN
 62
1
 10
-2.0
 20
1.735E+002
 11
-5.0
 21
1.705E+002
  0
LINE
  8
2D_VERDECKTE_KANTEN
  6
HIDDEN
 62
1
 10
-2.0
 20
1.785E+002
 11
0.0
 21
1.785E+002
  0
LINE
  8
2D_VERDECKTE_KANTEN
  6
HIDDEN
 62
1
 10
0.0
 20
1.735E+002
 11
-2.0
 21
1.735E+002
  0
LINE
  8
2D_VERDECKTE_KANTEN
  6
HIDDEN
 62
1
 10
-5.0
 20
1.655E+002
 11
-2.0
 21
1.625E+002
  0
LINE
  8
2D_VERDECKTE_KANTEN
  6
HIDDEN
 62
1
 10
-2.0
 20
1.625E+002
 11
-2.0
 21
1.575E+002
  0
LINE
  8
2D_VERDECKTE_KANTEN
  6
HIDDEN
 62
1
 10
-2.0
 20
1.575E+002
 11
-5.0
 21
1.545E+002
  0
LINE
  8
2D_VERDECKTE_KANTEN
  6
HIDDEN
 62
1
 10
-2.0
 20
1.625E+002
 11
0.0
 21
1.625E+002
  0
LINE
  8
2D_VERDECKTE_KANTEN
  6
HIDDEN
 62
1
 10
0.0
 20
1.575E+002
 11
-2.0
 21
1.575E+002
  0
LINE
  8
2D_SICHTBARE_KANTEN
  6
CONTINUOUS
 62
40
 10
0.0
 20
1.2724998E+002
 11
0.0
 21
1.8725E+002
  0
LINE
  8
2D_SICHTBARE_KANTEN
  6
CONTINUOUS
 62
40
 10
0.0
 20
1.8725E+002
 11
-4.9963135E+001
 21
1.8725E+002
  0
ARC
  8
2D_SICHTBARE_KANTEN
  6
CONTINUOUS
 62
40
 10
-4.9963122E+001
 20
1.8424999E+002
 40
3.0000131
 50
9.0000238E+001
 51
1.7996303E+002
  0
LINE
  8
2D_SICHTBARE_KANTEN
  6
CONTINUOUS
 62
40
 10
-5.2963135E+001
 20
1.8425192E+002
 11
-5.2998047E+001
 21
1.3025192E+002
  0
ARC
  8
2D_SICHTBARE_KANTEN
  6
CONTINUOUS
 62
40
 10
-4.999804E+001
 20
1.3024998E+002
 40
3.0000076
 50
1.7996284E+002
 51
2.6999987E+002
  0
LINE
  8
2D_SICHTBARE_KANTEN
  6
CONTINUOUS
 62
40
 10
-4.9998047E+001
 20
1.2724997E+002
 11
0.0
 21
1.2724998E+002
  0
LINE
  8
2D_SICHTBARE_KANTEN
  6
CONTINUOUS
 62
40
 10
-1.7000001E+001
 20
1.9549995E+002
 11
-2.0554217E+001
 21
1.9549995E+002
  0
LINE
  8
2D_BEMASSUNG
  6
CENTERLINE
 62
150
 10
-1.4237E-006
 20
2.165E+002
 11
-1.4237E-006
 21
2.115E+002
  0
LINE
  8
2D_MITTELLINIEN
  6
CENTERLINE
 62
1
 10
2.5597487
 20
2.14E+002
 11
-2.9500001E+001
 21
2.14E+002
  0
LINE
  8
2D_SICHTBARE_KANTEN
  6
CONTINUOUS
 62
40
 10
-2.2000066E+001
 20
2.04E+002
 11
-2.2000066E+001
 21
2.0199995E+002
  0
LINE
  8
2D_SICHTBARE_KANTEN
  6
CONTINUOUS
 62
40
 10
-2.2000066E+001
 20
2.0199995E+002
 11
-3.9000066E+001
 21
2.0199995E+002
  0
LINE
  8
2D_SICHTBARE_KANTEN
  6
CONTINUOUS
 62
40
 10
-3.9000066E+001
 20
2.0199995E+002
 11
-3.9000066E+001
 21
2.04E+002
  0
LINE
  8
2D_SICHTBARE_KANTEN
  6
CONTINUOUS
 62
40
 10
-3.5475042E+001
 20
2.0145001E+002
 11
-3.5475042E+001
 21
2.0199995E+002
  0
LINE
  8
2D_SICHTBARE_KANTEN
  6
CONTINUOUS
 62
40
 10
-3.5475042E+001
 20
2.0199995E+002
 11
-3.5475042E+001
 21
2.0049996E+002
  0
LINE
  8
2D_SICHTBARE_KANTEN
  6
CONTINUOUS
 62
40
 10
-2.5524969E+001
 20
2.0145001E+002
 11
-2.5524969E+001
 21
2.0199995E+002
  0
LINE
  8
2D_SICHTBARE_KANTEN
  6
CONTINUOUS
 62
40
 10
-2.5524969E+001
 20
2.0199995E+002
 11
-2.5525017E+001
 21
2.0049996E+002
  0
CIRCLE
  8
3D_SICHTBARE_KANTEN
  6
CONTINUOUS
 62
40
 10
-3.3E+001
 20
1.4875192E+002
 40
1.5
  0
CIRCLE
  8
3D_SICHTBARE_KANTEN
  6
CONTINUOUS
 62
40
 10
-7.5
 20
1.7425192E+002
 40
1.5
  0
CIRCLE
  8
3D_SICHTBARE_KANTEN
  6
CONTINUOUS
 62
40
 10
-1.6E+001
 20
1.7425192E+002
 40
1.5
  0
CIRCLE
  8
3D_SICHTBARE_KANTEN
  6
CONTINUOUS
 62
40
 10
-2.45E+001
 20
1.7425192E+002
 40
1.5
  0
CIRCLE
  8
3D_SICHTBARE_KANTEN
  6
CONTINUOUS
 62
40
 10
-3.3E+001
 20
1.7425192E+002
 40
1.5
  0
CIRCLE
  8
3D_SICHTBARE_KANTEN
  6
CONTINUOUS
 62
40
 10
-4.15E+001
 20
1.7425192E+002
 40
1.5
  0
CIRCLE
  8
3D_SICHTBARE_KANTEN
  6
CONTINUOUS
 62
40
 10
-7.5
 20
1.6575192E+002
 40
1.5
  0
CIRCLE
  8
3D_SICHTBARE_KANTEN
  6
CONTINUOUS
 62
40
 10
-1.6E+001
 20
1.6575192E+002
 40
1.5
  0
CIRCLE
  8
3D_SICHTBARE_KANTEN
  6
CONTINUOUS
 62
40
 10
-2.45E+001
 20
1.6575192E+002
 40
1.5
  0
CIRCLE
  8
3D_SICHTBARE_KANTEN
  6
CONTINUOUS
 62
40
 10
-3.3E+001
 20
1.6575192E+002
 40
1.5
  0
CIRCLE
  8
3D_SICHTBARE_KANTEN
  6
CONTINUOUS
 62
40
 10
-4.15E+001
 20
1.6575192E+002
 40
1.5
  0
CIRCLE
  8
3D_SICHTBARE_KANTEN
  6
CONTINUOUS
 62
40
 10
-7.5
 20
1.5725192E+002
 40
1.5
  0
CIRCLE
  8
3D_SICHTBARE_KANTEN
  6
CONTINUOUS
 62
40
 10
-1.6E+001
 20
1.5725192E+002
 40
1.5
  0
CIRCLE
  8
3D_SICHTBARE_KANTEN
  6
CONTINUOUS
 62
40
 10
-2.45E+001
 20
1.5725192E+002
 40
1.5
  0
CIRCLE
  8
3D_SICHTBARE_KANTEN
  6
CONTINUOUS
 62
40
 10
-3.3E+001
 20
1.5725192E+002
 40
1.5
  0
CIRCLE
  8
3D_SICHTBARE_KANTEN
  6
CONTINUOUS
 62
40
 10
-4.15E+001
 20
1.5725192E+002
 40
1.5
  0
CIRCLE
  8
3D_SICHTBARE_KANTEN
  6
CONTINUOUS
 62
40
 10
-7.5
 20
1.4875192E+002
 40
1.5
  0
CIRCLE
  8
3D_SICHTBARE_KANTEN
  6
CONTINUOUS
 62
40
 10
-1.6E+001
 20
1.4875192E+002
 40
1.5
  0
CIRCLE
  8
3D_SICHTBARE_KANTEN
  6
CONTINUOUS
 62
40
 10
-2.45E+001
 20
1.4875192E+002
 40
1.5
  0
CIRCLE
  8
3D_SICHTBARE_KANTEN
  6
CONTINUOUS
 62
40
 10
-4.15E+001
 20
1.4875192E+002
 40
1.5
  0
CIRCLE
  8
3D_SICHTBARE_KANTEN
  6
CONTINUOUS
 62
40
 10
-7.5
 20
1.4025192E+002
 40
1.5
  0
CIRCLE
  8
3D_SICHTBARE_KANTEN
  6
CONTINUOUS
 62
40
 10
-1.6E+001
 20
1.4025192E+002
 40
1.5
  0
CIRCLE
  8
3D_SICHTBARE_KANTEN
  6
CONTINUOUS
 62
40
 10
-2.45E+001
 20
1.4025192E+002
 40
1.5
  0
CIRCLE
  8
3D_SICHTBARE_KANTEN
  6
CONTINUOUS
 62
40
 10
-3.3E+001
 20
1.4025192E+002
 40
1.5
  0
CIRCLE
  8
3D_SICHTBARE_KANTEN
  6
CONTINUOUS
 62
40
 10
-4.15E+001
 20
1.4025192E+002
 40
1.5
  0
LINE
  8
3D_SICHTBARE_KANTEN
  6
CONTINUOUS
 62
40
 10
-2.3670844E+001
 20
1.3900192E+002
 11
-2.3714406E+001
 21
1.3900192E+002
  0
ARC
  8
3D_SICHTBARE_KANTEN
  6
CONTINUOUS
 62
40
 10
-2.9E+001
 20
1.5725192E+002
 40
1.9E+001
 50
2.8614127E+002
 51
2.8615216E+002
  0
LINE
  8
2D_SICHTBARE_KANTEN
  6
CONTINUOUS
 62
40
 10
-4.1500066E+001
 20
2.0049996E+002
 11
-4.1500066E+001
 21
1.9549995E+002
  0
LINE
  8
2D_SICHTBARE_KANTEN
  6
CONTINUOUS
 62
40
 10
5.0E+001
 20
2.15E+002
 11
5.0E+001
 21
0.0
  0
LINE
  8
2D_SICHTBARE_KANTEN
  6
CONTINUOUS
 62
40
 10
0.0
 20
2.0E+002
 11
0.0
 21
0.0
  0
LINE
  8
2D_SICHTBARE_KANTEN
  6
CONTINUOUS
 62
40
 10
5.0E+001
 20
2.15E+002
 11
3.5E+001
 21
2.15E+002
  0
LINE
  8
2D_SICHTBARE_KANTEN
  6
CONTINUOUS
 62
40
 10
5.0E+001
 20
2.19E+002
 11
3.5E+001
 21
2.19E+002
  0
LINE
  8
2D_SICHTBARE_KANTEN
  6
CONTINUOUS
 62
40
 10
5.0E+001
 20
2.89E+002
 11
5.0E+001
 21
2.19E+002
  0
LINE
  8
2D_SICHTBARE_KANTEN
  6
CONTINUOUS
 62
40
 10
-1.5E+001
 20
2.888259E+002
 11
-1.5E+001
 21
2.04E+002
  0
LINE
  8
2D_MITTELLINIEN
  6
CENTERLINE
 62
1
 10
6.6342387E+001
 20
0.0
 11
-1.7003785E+001
 21
0.0
  0
INSERT
  2
44NEW01
  8
2D_SYMBOLE
 10
5.75E+001
 20
9.5E+001
 41
1.0
 43
1.0
 42
-1.0
 50
1.8E+002
  0
LINE
  8
2D_SICHTBARE_KANTEN
  6
CONTINUOUS
 62
40
 10
3.5E+001
 20
2.0E+002
 11
0.0
 21
2.0E+002
  0
LINE
  8
2D_SICHTBARE_KANTEN
  6
CONTINUOUS
 62
40
 10
3.5E+001
 20
2.15E+002
 11
3.5E+001
 21
2.0E+002
  0
LINE
  8
2D_SICHTBARE_KANTEN
  6
CONTINUOUS
 62
40
 10
3.5E+001
 20
2.15E+002
 11
3.5E+001
 21
2.19E+002
  0
LINE
  8
99
  6
CONTINUOUS
 62
1
 10
0.0
 20
1.775E+002
 11
1.1E+001
 21
1.775E+002
  0
LINE
  8
99
  6
CONTINUOUS
 62
1
 10
1.1E+001
 20
1.745E+002
 11
0.0
 21
1.745E+002
  0
LINE
  8
2D_SICHTBARE_KANTEN
  6
CONTINUOUS
 62
40
 10
0.0
 20
1.785E+002
 11
1.1E+001
 21
1.785E+002
  0
LINE
  8
2D_SICHTBARE_KANTEN
  6
CONTINUOUS
 62
40
 10
1.1E+001
 20
1.785E+002
 11
1.1E+001
 21
1.735E+002
  0
LINE
  8
2D_SICHTBARE_KANTEN
  6
CONTINUOUS
 62
40
 10
1.1E+001
 20
1.735E+002
 11
0.0
 21
1.735E+002
  0
LINE
  8
99
  6
CONTINUOUS
 62
1
 10
-1.4237E-006
 20
1.3449999E+002
 11
1.0999999E+001
 21
1.3449999E+002
  0
LINE
  8
99
  6
CONTINUOUS
 62
1
 10
1.0999999E+001
 20
1.3149999E+002
 11
-1.4237E-006
 21
1.3149999E+002
  0
LINE
  8
2D_SICHTBARE_KANTEN
  6
CONTINUOUS
 62
40
 10
-1.4237E-006
 20
1.3549999E+002
 11
1.0999999E+001
 21
1.3549999E+002
  0
LINE
  8
2D_SICHTBARE_KANTEN
  6
CONTINUOUS
 62
40
 10
1.0999999E+001
 20
1.3549999E+002
 11
1.0999999E+001
 21
1.3049999E+002
  0
LINE
  8
2D_SICHTBARE_KANTEN
  6
CONTINUOUS
 62
40
 10
1.0999999E+001
 20
1.3049999E+002
 11
-1.4237E-006
 21
1.3049999E+002
  0
LINE
  8
2D_MITTELLINIEN
  6
CENTERLINE
 62
1
 10
-7.6777358
 20
1.3299999E+002
 11
1.2781844E+001
 21
1.3299999E+002
  0
LINE
  8
2D_MITTELLINIEN
  6
CENTERLINE
 62
1
 10
-7.5410156
 20
1.76E+002
 11
1.5585978E+001
 21
1.76E+002
  0
LINE
  8
2D_SICHTBARE_KANTEN
  6
CONTINUOUS
 62
40
 10
5.0E+001
 20
2.89E+002
 11
-1.5E+001
 21
2.89E+002
  0
LINE
  8
2D_SICHTBARE_KANTEN
  6
CONTINUOUS
 62
40
 10
-1.5E+001
 20
2.04E+002
 11
3.5E+001
 21
2.04E+002
  0
DIMENSION
  8
2D_BEMASSUNG
  6
CONTINUOUS
 62
1
  1
max.26
  2
*D1601
  3
DSTYLE1
 10
-1.5E+001
 20
3.1354652E+002
 11
-4.0948708E+001
 21
3.2004852E+002
 70
128
 13
0.0
 23
2.0E+002
 14
-1.5E+001
 24
2.888259E+002
 40
1.0E+001
 50
0.0
1001
ACAD
1000
DSTYLE
1002
{
1070
173
1070
0
1070
5
1000
_AH13
1002
}
  0
DIMENSION
  8
2D_BEMASSUNG
  6
CONTINUOUS
 62
1
  2
*D1602
  3
DSTYLE1
 10
9.4397289E+001
 20
1.3299999E+002
 11
8.7895289E+001
 21
1.5439195E+002
 70
128
 13
1.5585978E+001
 23
1.76E+002
 14
1.2781844E+001
 24
1.3299999E+002
 40
1.0E+001
 50
9.0E+001
1001
ACAD
1000
DSTYLE
1002
{
1070
173
1070
0
1070
5
1000
_AH13
1002
}
  0
DIMENSION
  8
2D_BEMASSUNG
  6
CONTINUOUS
 62
1
  2
*D1603
  3
DSTYLE1
 10
9.4625172E+001
 20
2.04E+002
 11
8.8123172E+001
 21
1.9063823E+002
 70
128
 13
1.5585978E+001
 23
1.76E+002
 14
3.5E+001
 24
2.04E+002
 40
1.0E+001
 50
9.0E+001
1001
ACAD
1000
DSTYLE
1002
{
1070
173
1070
0
1070
5
1000
_AH13
1002
}
  0
DIMENSION
  8
2D_BEMASSUNG
  6
CONTINUOUS
 62
1
  2
*D1604
  3
DSTYLE1
 10
1.1941388E+002
 20
2.14E+002
 11
1.1291187E+002
 21
1.7737103E+002
 70
128
 13
1.2781844E+001
 23
1.3299999E+002
 14
-1.016037
 24
2.14E+002
 40
1.0E+001
 50
9.0E+001
1001
ACAD
1000
DSTYLE
1002
{
1070
173
1070
0
1070
5
1000
_AH13
1002
}
  0
LINE
  8
2D_MITTELLINIEN
  6
CENTERLINE
 62
1
 10
5.75498E-001
 20
2.14E+002
 11
-4.45E+001
 21
2.14E+002
  0
LINE
  8
2D_SICHTBARE_KANTEN
  6
CONTINUOUS
 62
40
 10
-1.0
 20
2.165E+002
 11
-1.5E+001
 21
2.165E+002
  0
LINE
  8
2D_SICHTBARE_KANTEN
  6
CONTINUOUS
 62
40
 10
-1.0
 20
2.115E+002
 11
-1.5E+001
 21
2.115E+002
  0
LINE
  8
2D_SICHTBARE_KANTEN
  6
CONTINUOUS
 62
40
 10
-1.0
 20
2.165E+002
 11
-1.0
 21
2.115E+002
  0
LINE
  8
2D_SICHTBARE_KANTEN
  6
CONTINUOUS
 62
1
 10
-1.0
 20
2.16E+002
 11
-1.5E+001
 21
2.16E+002
  0
LINE
  8
2D_SICHTBARE_KANTEN
  6
CONTINUOUS
 62
1
 10
-1.0
 20
2.12E+002
 11
-1.5E+001
 21
2.12E+002
  0
ARC
  8
3D_SICHTBARE_KANTEN
  6
CONTINUOUS
 62
40
 10
-4.3E+001
 20
2.21E+002
 40
3.0
 50
8.9999987E+001
 51
1.8000001E+002
  0
ARC
  8
3D_SICHTBARE_KANTEN
  6
CONTINUOUS
 62
40
 10
-4.3E+001
 20
2.07E+002
 40
3.0
 50
1.7999999E+002
 51
2.7000001E+002
  0
LINE
  8
3D_SICHTBARE_KANTEN
  6
CONTINUOUS
 62
40
 10
-4.3E+001
 20
2.04E+002
 11
-1.5E+001
 21
2.04E+002
  0
LINE
  8
3D_SICHTBARE_KANTEN
  6
CONTINUOUS
 62
40
 10
-4.6E+001
 20
2.21E+002
 11
-4.6E+001
 21
2.07E+002
  0
LINE
  8
3D_SICHTBARE_KANTEN
  6
CONTINUOUS
 62
40
 10
-1.5E+001
 20
2.24E+002
 11
-4.3E+001
 21
2.24E+002
  0
LINE
  8
3D_SICHTBARE_KANTEN
  6
CONTINUOUS
 62
1
 10
-4.3E+001
 20
2.215E+002
 11
-1.5E+001
 21
2.215E+002
  0
ARC
  8
3D_SICHTBARE_KANTEN
  6
CONTINUOUS
 62
1
 10
-4.3E+001
 20
2.21E+002
 40
5.0E-001
 50
9.0E+001
 51
1.8E+002
  0
LINE
  8
3D_SICHTBARE_KANTEN
  6
CONTINUOUS
 62
1
 10
-4.35E+001
 20
2.07E+002
 11
-4.35E+001
 21
2.21E+002
  0
ARC
  8
3D_SICHTBARE_KANTEN
  6
CONTINUOUS
 62
1
 10
-4.3E+001
 20
2.07E+002
 40
5.0E-001
 50
1.8E+002
 51
2.7E+002
  0
LINE
  8
3D_SICHTBARE_KANTEN
  6
CONTINUOUS
 62
1
 10
-1.5E+001
 20
2.065E+002
 11
-4.3E+001
 21
2.065E+002
  0
LINE
  8
3D_SICHTBARE_KANTEN
  6
CONTINUOUS
 62
1
 10
-4.3E+001
 20
2.055E+002
 11
-1.5E+001
 21
2.055E+002
  0
ARC
  8
3D_SICHTBARE_KANTEN
  6
CONTINUOUS
 62
1
 10
-4.3E+001
 20
2.07E+002
 40
1.5
 50
1.8E+002
 51
2.7E+002
  0
LINE
  8
3D_SICHTBARE_KANTEN
  6
CONTINUOUS
 62
1
 10
-4.45E+001
 20
2.21E+002
 11
-4.45E+001
 21
2.07E+002
  0
ARC
  8
3D_SICHTBARE_KANTEN
  6
CONTINUOUS
 62
1
 10
-4.3E+001
 20
2.21E+002
 40
1.5
 50
9.0E+001
 51
1.8E+002
  0
LINE
  8
3D_SICHTBARE_KANTEN
  6
CONTINUOUS
 62
1
 10
-1.5E+001
 20
2.225E+002
 11
-4.3E+001
 21
2.225E+002
  0
LINE
  8
3D_SICHTBARE_KANTEN
  6
CONTINUOUS
 62
40
 10
-1.5E+001
 20
2.237E+002
 11
-1.5E+001
 21
2.24E+002
  0
LINE
  8
3D_SICHTBARE_KANTEN
  6
CONTINUOUS
 62
40
 10
-1.5E+001
 20
2.04E+002
 11
-1.5E+001
 21
2.043E+002
  0
LINE
  8
3D_SICHTBARE_KANTEN
  6
CONTINUOUS
 62
40
 10
-1.5E+001
 20
2.043E+002
 11
-1.5E+001
 21
2.055E+002
  0
LINE
  8
3D_SICHTBARE_KANTEN
  6
CONTINUOUS
 62
1
 10
-1.5E+001
 20
2.055E+002
 11
-1.5E+001
 21
2.065E+002
  0
LINE
  8
3D_SICHTBARE_KANTEN
  6
CONTINUOUS
 62
40
 10
-1.5E+001
 20
2.065E+002
 11
-1.5E+001
 21
2.215E+002
  0
LINE
  8
3D_SICHTBARE_KANTEN
  6
CONTINUOUS
 62
1
 10
-1.5E+001
 20
2.215E+002
 11
-1.5E+001
 21
2.225E+002
  0
LINE
  8
3D_SICHTBARE_KANTEN
  6
CONTINUOUS
 62
40
 10
-1.5E+001
 20
2.225E+002
 11
-1.5E+001
 21
2.237E+002
  0
POINT
  8
Drafting_Hidden_Entities
  6
CONTINUOUS
 62
1
 10
0.0
 20
0.0
  0
ENDBLK
  0
BLOCK
  2
44NEW01
 10
0.0
 20
0.0
 70
0
  0
ARC
  8
2D_SICHTBARE_KANTEN
  6
CONTINUOUS
 62
40
 10
0.0
 20
-6.7008E+001
 40
1.5001402E+001
 50
2.4000309E+002
 51
2.9999691E+002
  0
ARC
  8
2D_SICHTBARE_KANTEN
  6
CONTINUOUS
 62
40
 10
0.0
 20
-1.299E+001
 40
1.499967E+001
 50
5.9999272E+001
 51
1.2000073E+002
  0
LINE
  8
2D_SICHTBARE_KANTEN
  6
CONTINUOUS
 62
40
 10
7.5
 20
-8.0E+001
 11
-7.5
 21
-8.0E+001
  0
LINE
  8
2D_SICHTBARE_KANTEN
  6
CONTINUOUS
 62
40
 10
-7.5
 20
-8.0E+001
 11
-7.5
 21
-4.0E+001
  0
LINE
  8
2D_SICHTBARE_KANTEN
  6
CONTINUOUS
 62
40
 10
-7.5
 20
-4.0E+001
 11
7.5
 21
-4.0E+001
  0
LINE
  8
2D_SICHTBARE_KANTEN
  6
CONTINUOUS
 62
40
 10
7.5
 20
-4.0E+001
 11
7.5
 21
-8.0E+001
  0
LINE
  8
2D_SICHTBARE_KANTEN
  6
CONTINUOUS
 62
40
 10
7.5
 20
-4.0E+001
 11
-7.5
 21
-4.0E+001
  0
LINE
  8
2D_SICHTBARE_KANTEN
  6
CONTINUOUS
 62
40
 10
-7.5
 20
-4.0E+001
 11
-7.5
 21
0.0
  0
LINE
  8
2D_SICHTBARE_KANTEN
  6
CONTINUOUS
 62
40
 10
-7.5
 20
0.0
 11
7.5
 21
0.0
  0
LINE
  8
2D_SICHTBARE_KANTEN
  6
CONTINUOUS
 62
40
 10
7.5
 20
0.0
 11
7.5
 21
-4.0E+001
  0
LINE
  8
2D_MITTELLINIEN
  6
CENTERLINE
 62
1
 10
0.0
 20
-8.9134E+001
 11
0.0
 21
7.166
  0
POINT
  8
Drafting_Hidden_Entities
  6
CONTINUOUS
 62
1
 10
0.0
 20
0.0
  0
ENDBLK
  0
BLOCK
  2
P
 10
0.0
 20
0.0
 70
0
  0
LINE
  8
2D_BEMASSUNG
  6
CENTERLINE
 62
150
 10
-5.0E+001
 20
-1.425E+002
 11
-5.0E+001
 21
-1.375E+002
  0
LINE
  8
2D_BEMASSUNG
  6
CENTERLINE
 62
150
 10
-5.0000001E+001
 20
-1.5850001E+002
 11
-5.0000001E+001
 21
-1.5350001E+002
  0
LINE
  8
2D_SICHTBARE_KANTEN
  6
CONTINUOUS
 62
40
 10
-6.7000001E+001
 20
-9.3500051E+001
 11
-6.7000001E+001
 21
-1.0175E+002
  0
LINE
  8
2D_SICHTBARE_KANTEN
  6
CONTINUOUS
 62
40
 10
-8.9000005E+001
 20
-1.0175E+002
 11
-8.9000005E+001
 21
-9.3500051E+001
  0
LINE
  8
2D_SICHTBARE_KANTEN
  6
CONTINUOUS
 62
40
 10
-9.1500066E+001
 20
-8.8500035E+001
 11
-6.7000001E+001
 21
-8.8500035E+001
  0
LINE
  8
2D_SICHTBARE_KANTEN
  6
CONTINUOUS
 62
40
 10
-9.1500066E+001
 20
-9.3500051E+001
 11
-7.0554217E+001
 21
-9.3500051E+001
  0
LINE
  8
2D_SICHTBARE_KANTEN
  6
CONTINUOUS
 62
40
 10
-6.7000001E+001
 20
-8.8500035E+001
 11
-6.7000001E+001
 21
-1.0175001E+002
  0
LINE
  8
2D_VERDECKTE_KANTEN
  6
HIDDEN
 62
1
 10
-5.0000001E+001
 20
-1.3175004E+002
 11
-5.0000001E+001
 21
-1.0400004E+002
  0
ARC
  8
2D_VERDECKTE_KANTEN
  6
HIDDEN
 62
1
 10
-5.0499983E+001
 20
-1.0400002E+002
 40
4.999816E-001
 50
3.5999789E+002
 51
4.5000211E+002
  0
LINE
  8
2D_VERDECKTE_KANTEN
  6
HIDDEN
 62
1
 10
-5.0500001E+001
 20
-1.0350004E+002
 11
-5.2092897E+001
 21
-1.0350004E+002
  0
ARC
  8
2D_VERDECKTE_KANTEN
  6
HIDDEN
 62
1
 10
-5.2092858E+001
 20
-1.0300002E+002
 40
5.0002333E-001
 50
2.2500241E+002
 51
2.6999548E+002
  0
LINE
  8
2D_VERDECKTE_KANTEN
  6
HIDDEN
 62
1
 10
-5.2446413E+001
 20
-1.033536E+002
 11
-5.3153566E+001
 21
-1.026465E+002
  0
ARC
  8
2D_VERDECKTE_KANTEN
  6
HIDDEN
 62
1
 10
-5.350707E+001
 20
-1.0299991E+002
 40
4.998634E-001
 50
4.499234E+001
 51
9.0001327E+001
  0
LINE
  8
2D_VERDECKTE_KANTEN
  6
HIDDEN
 62
1
 10
-5.3507082E+001
 20
-1.0250004E+002
 11
-5.3692873E+001
 21
-1.0250004E+002
  0
ARC
  8
2D_VERDECKTE_KANTEN
  6
HIDDEN
 62
1
 10
-5.3692947E+001
 20
-1.029999E+002
 40
4.9985856E-001
 50
8.9991448E+001
 51
1.3500789E+002
  0
LINE
  8
2D_VERDECKTE_KANTEN
  6
HIDDEN
 62
1
 10
-5.4046449E+001
 20
-1.026465E+002
 11
-5.4853517E+001
 21
-1.0345358E+002
  0
ARC
  8
2D_VERDECKTE_KANTEN
  6
HIDDEN
 62
1
 10
-5.4500151E+001
 20
-1.0380711E+002
 40
4.9985012E-001
 50
1.3498676E+002
 51
1.8000371E+002
  0
LINE
  8
2D_VERDECKTE_KANTEN
  6
HIDDEN
 62
1
 10
-5.5000001E+001
 20
-1.0380714E+002
 11
-5.5000001E+001
 21
-1.5969294E+002
  0
ARC
  8
2D_VERDECKTE_KANTEN
  6
HIDDEN
 62
1
 10
-5.4500042E+001
 20
-1.5969293E+002
 40
4.9995942E-001
 50
1.8000148E+002
 51
2.2500805E+002
  0
LINE
  8
2D_VERDECKTE_KANTEN
  6
HIDDEN
 62
1
 10
-5.4853517E+001
 20
-1.600465E+002
 11
-5.4046449E+001
 21
-1.6085359E+002
  0
ARC
  8
2D_VERDECKTE_KANTEN
  6
HIDDEN
 62
1
 10
-5.3692872E+001
 20
-1.605E+002
 40
5.0004068E-001
 50
2.2500076E+002
 51
2.6999991E+002
  0
LINE
  8
2D_VERDECKTE_KANTEN
  6
HIDDEN
 62
1
 10
-5.3692873E+001
 20
-1.6100004E+002
 11
-5.3507082E+001
 21
-1.6100004E+002
  0
ARC
  8
2D_VERDECKTE_KANTEN
  6
HIDDEN
 62
1
 10
-5.3507097E+001
 20
-1.6050011E+002
 40
4.9992995E-001
 50
2.7000183E+002
 51
3.150045E+002
  0
LINE
  8
2D_VERDECKTE_KANTEN
  6
HIDDEN
 62
1
 10
-5.3153566E+001
 20
-1.6085359E+002
 11
-5.2446413E+001
 21
-1.6014648E+002
  0
ARC
  8
2D_VERDECKTE_KANTEN
  6
HIDDEN
 62
1
 10
-5.2092867E+001
 20
-1.6050004E+002
 40
4.9999931E-001
 50
9.0003377E+001
 51
1.3499873E+002
  0
LINE
  8
2D_VERDECKTE_KANTEN
  6
HIDDEN
 62
1
 10
-5.2092897E+001
 20
-1.6000004E+002
 11
-5.0500001E+001
 21
-1.6000004E+002
  0
ARC
  8
2D_VERDECKTE_KANTEN
  6
HIDDEN
 62
1
 10
-5.05E+001
 20
-1.5950004E+002
 40
4.9999906E-001
 50
2.6999989E+002
 51
3.6000011E+002
  0
LINE
  8
2D_VERDECKTE_KANTEN
  6
HIDDEN
 62
1
 10
-5.0000001E+001
 20
-1.5950004E+002
 11
-5.0000001E+001
 21
-1.3175004E+002
  0
LINE
  8
2D_MITTELLINIEN
  6
CENTERLINE
 62
1
 10
-5.6067814E+001
 20
-1.13E+002
 11
-4.7049194E+001
 21
-1.13E+002
  0
LINE
  8
2D_MITTELLINIEN
  6
CENTERLINE
 62
1
 10
-5.6067814E+001
 20
-1.29E+002
 11
-4.7237732E+001
 21
-1.29E+002
  0
LINE
  8
2D_MITTELLINIEN
  6
CENTERLINE
 62
1
 10
-5.6067814E+001
 20
-1.4E+002
 11
-4.7666687E+001
 21
-1.4E+002
  0
LINE
  8
2D_MITTELLINIEN
  6
CENTERLINE
 62
1
 10
-5.6067877E+001
 20
-1.56E+002
 11
-4.7279297E+001
 21
-1.5600002E+002
  0
LINE
  8
2D_VERDECKTE_KANTEN
  6
HIDDEN
 62
1
 10
-5.5E+001
 20
-1.5050002E+002
 11
-5.2E+001
 21
-1.5350002E+002
  0
LINE
  8
2D_VERDECKTE_KANTEN
  6
HIDDEN
 62
1
 10
-5.2E+001
 20
-1.5350002E+002
 11
-5.2E+001
 21
-1.5850002E+002
  0
LINE
  8
2D_VERDECKTE_KANTEN
  6
HIDDEN
 62
1
 10
-5.2E+001
 20
-1.5850002E+002
 11
-5.4199951E+001
 21
-1.6070003E+002
  0
LINE
  8
2D_VERDECKTE_KANTEN
  6
HIDDEN
 62
1
 10
-5.5E+001
 20
-1.345E+002
 11
-5.2E+001
 21
-1.375E+002
  0
LINE
  8
2D_VERDECKTE_KANTEN
  6
HIDDEN
 62
1
 10
-5.2E+001
 20
-1.375E+002
 11
-5.2E+001
 21
-1.425E+002
  0
LINE
  8
2D_VERDECKTE_KANTEN
  6
HIDDEN
 62
1
 10
-5.2E+001
 20
-1.425E+002
 11
-5.5E+001
 21
-1.455E+002
  0
LINE
  8
2D_VERDECKTE_KANTEN
  6
HIDDEN
 62
1
 10
-5.2E+001
 20
-1.425E+002
 11
-5.0E+001
 21
-1.425E+002
  0
LINE
  8
2D_VERDECKTE_KANTEN
  6
HIDDEN
 62
1
 10
-5.0E+001
 20
-1.375E+002
 11
-5.2E+001
 21
-1.375E+002
  0
LINE
  8
2D_VERDECKTE_KANTEN
  6
HIDDEN
 62
1
 10
-5.2E+001
 20
-1.535E+002
 11
-5.0E+001
 21
-1.535E+002
  0
LINE
  8
2D_VERDECKTE_KANTEN
  6
HIDDEN
 62
1
 10
-5.0E+001
 20
-1.585E+002
 11
-5.2E+001
 21
-1.585E+002
  0
LINE
  8
2D_VERDECKTE_KANTEN
  6
HIDDEN
 62
1
 10
-5.5E+001
 20
-1.075E+002
 11
-5.2E+001
 21
-1.105E+002
  0
LINE
  8
2D_VERDECKTE_KANTEN
  6
HIDDEN
 62
1
 10
-5.2E+001
 20
-1.105E+002
 11
-5.2E+001
 21
-1.155E+002
  0
LINE
  8
2D_VERDECKTE_KANTEN
  6
HIDDEN
 62
1
 10
-5.2E+001
 20
-1.155E+002
 11
-5.5E+001
 21
-1.185E+002
  0
LINE
  8
2D_VERDECKTE_KANTEN
  6
HIDDEN
 62
1
 10
-5.2E+001
 20
-1.105E+002
 11
-5.0E+001
 21
-1.105E+002
  0
LINE
  8
2D_VERDECKTE_KANTEN
  6
HIDDEN
 62
1
 10
-5.0E+001
 20
-1.155E+002
 11
-5.2E+001
 21
-1.155E+002
  0
LINE
  8
2D_VERDECKTE_KANTEN
  6
HIDDEN
 62
1
 10
-5.5E+001
 20
-1.235E+002
 11
-5.2E+001
 21
-1.265E+002
  0
LINE
  8
2D_VERDECKTE_KANTEN
  6
HIDDEN
 62
1
 10
-5.2E+001
 20
-1.265E+002
 11
-5.2E+001
 21
-1.315E+002
  0
LINE
  8
2D_VERDECKTE_KANTEN
  6
HIDDEN
 62
1
 10
-5.2E+001
 20
-1.315E+002
 11
-5.5E+001
 21
-1.345E+002
  0
LINE
  8
2D_VERDECKTE_KANTEN
  6
HIDDEN
 62
1
 10
-5.2E+001
 20
-1.265E+002
 11
-5.0E+001
 21
-1.265E+002
  0
LINE
  8
2D_VERDECKTE_KANTEN
  6
HIDDEN
 62
1
 10
-5.0E+001
 20
-1.315E+002
 11
-5.2E+001
 21
-1.315E+002
  0
LINE
  8
2D_SICHTBARE_KANTEN
  6
CONTINUOUS
 62
40
 10
-5.0E+001
 20
-1.6175002E+002
 11
-5.0E+001
 21
-1.0175E+002
  0
LINE
  8
2D_SICHTBARE_KANTEN
  6
CONTINUOUS
 62
40
 10
-5.0E+001
 20
-1.0175E+002
 11
-9.9963135E+001
 21
-1.0175E+002
  0
ARC
  8
2D_SICHTBARE_KANTEN
  6
CONTINUOUS
 62
40
 10
-9.9963122E+001
 20
-1.0475001E+002
 40
3.0000131
 50
9.0000238E+001
 51
1.7996303E+002
  0
LINE
  8
2D_SICHTBARE_KANTEN
  6
CONTINUOUS
 62
40
 10
-1.0296313E+002
 20
-1.0474808E+002
 11
-1.0299805E+002
 21
-1.5874808E+002
  0
ARC
  8
2D_SICHTBARE_KANTEN
  6
CONTINUOUS
 62
40
 10
-9.999804E+001
 20
-1.5875002E+002
 40
3.0000076
 50
1.7996284E+002
 51
2.6999987E+002
  0
LINE
  8
2D_SICHTBARE_KANTEN
  6
CONTINUOUS
 62
40
 10
-9.9998047E+001
 20
-1.6175003E+002
 11
-5.0E+001
 21
-1.6175002E+002
  0
LINE
  8
2D_SICHTBARE_KANTEN
  6
CONTINUOUS
 62
40
 10
-6.7000001E+001
 20
-9.3500051E+001
 11
-7.0554217E+001
 21
-9.3500051E+001
  0
LINE
  8
2D_BEMASSUNG
  6
CENTERLINE
 62
150
 10
-5.0000001E+001
 20
-7.25E+001
 11
-5.0000001E+001
 21
-7.75E+001
  0
LINE
  8
2D_MITTELLINIEN
  6
CENTERLINE
 62
1
 10
-4.7440251E+001
 20
-7.5E+001
 11
-7.9500001E+001
 21
-7.5E+001
  0
LINE
  8
2D_SICHTBARE_KANTEN
  6
CONTINUOUS
 62
40
 10
-7.2000066E+001
 20
-8.5E+001
 11
-7.2000066E+001
 21
-8.7000051E+001
  0
LINE
  8
2D_SICHTBARE_KANTEN
  6
CONTINUOUS
 62
40
 10
-7.2000066E+001
 20
-8.7000051E+001
 11
-8.9000066E+001
 21
-8.7000051E+001
  0
LINE
  8
2D_SICHTBARE_KANTEN
  6
CONTINUOUS
 62
40
 10
-8.9000066E+001
 20
-8.7000051E+001
 11
-8.9000066E+001
 21
-8.5E+001
  0
LINE
  8
2D_SICHTBARE_KANTEN
  6
CONTINUOUS
 62
40
 10
-8.5475042E+001
 20
-8.7549988E+001
 11
-8.5475042E+001
 21
-8.7000051E+001
  0
LINE
  8
2D_SICHTBARE_KANTEN
  6
CONTINUOUS
 62
40
 10
-8.5475042E+001
 20
-8.7000051E+001
 11
-8.5475042E+001
 21
-8.8500035E+001
  0
LINE
  8
2D_SICHTBARE_KANTEN
  6
CONTINUOUS
 62
40
 10
-7.5524969E+001
 20
-8.7549988E+001
 11
-7.5524969E+001
 21
-8.7000051E+001
  0
LINE
  8
2D_SICHTBARE_KANTEN
  6
CONTINUOUS
 62
40
 10
-7.5524969E+001
 20
-8.7000051E+001
 11
-7.5525017E+001
 21
-8.8500035E+001
  0
CIRCLE
  8
3D_SICHTBARE_KANTEN
  6
CONTINUOUS
 62
40
 10
-8.3E+001
 20
-1.4024808E+002
 40
1.5
  0
CIRCLE
  8
3D_SICHTBARE_KANTEN
  6
CONTINUOUS
 62
40
 10
-5.75E+001
 20
-1.1474808E+002
 40
1.5
  0
CIRCLE
  8
3D_SICHTBARE_KANTEN
  6
CONTINUOUS
 62
40
 10
-6.6E+001
 20
-1.1474808E+002
 40
1.5
  0
CIRCLE
  8
3D_SICHTBARE_KANTEN
  6
CONTINUOUS
 62
40
 10
-7.45E+001
 20
-1.1474808E+002
 40
1.5
  0
CIRCLE
  8
3D_SICHTBARE_KANTEN
  6
CONTINUOUS
 62
40
 10
-8.3E+001
 20
-1.1474808E+002
 40
1.5
  0
CIRCLE
  8
3D_SICHTBARE_KANTEN
  6
CONTINUOUS
 62
40
 10
-9.15E+001
 20
-1.1474808E+002
 40
1.5
  0
CIRCLE
  8
3D_SICHTBARE_KANTEN
  6
CONTINUOUS
 62
40
 10
-5.75E+001
 20
-1.2324808E+002
 40
1.5
  0
CIRCLE
  8
3D_SICHTBARE_KANTEN
  6
CONTINUOUS
 62
40
 10
-6.6E+001
 20
-1.2324808E+002
 40
1.5
  0
CIRCLE
  8
3D_SICHTBARE_KANTEN
  6
CONTINUOUS
 62
40
 10
-7.45E+001
 20
-1.2324808E+002
 40
1.5
  0
CIRCLE
  8
3D_SICHTBARE_KANTEN
  6
CONTINUOUS
 62
40
 10
-8.3E+001
 20
-1.2324808E+002
 40
1.5
  0
CIRCLE
  8
3D_SICHTBARE_KANTEN
  6
CONTINUOUS
 62
40
 10
-9.15E+001
 20
-1.2324808E+002
 40
1.5
  0
CIRCLE
  8
3D_SICHTBARE_KANTEN
  6
CONTINUOUS
 62
40
 10
-5.75E+001
 20
-1.3174808E+002
 40
1.5
  0
CIRCLE
  8
3D_SICHTBARE_KANTEN
  6
CONTINUOUS
 62
40
 10
-6.6E+001
 20
-1.3174808E+002
 40
1.5
  0
CIRCLE
  8
3D_SICHTBARE_KANTEN
  6
CONTINUOUS
 62
40
 10
-7.45E+001
 20
-1.3174808E+002
 40
1.5
  0
CIRCLE
  8
3D_SICHTBARE_KANTEN
  6
CONTINUOUS
 62
40
 10
-8.3E+001
 20
-1.3174808E+002
 40
1.5
  0
CIRCLE
  8
3D_SICHTBARE_KANTEN
  6
CONTINUOUS
 62
40
 10
-9.15E+001
 20
-1.3174808E+002
 40
1.5
  0
CIRCLE
  8
3D_SICHTBARE_KANTEN
  6
CONTINUOUS
 62
40
 10
-5.75E+001
 20
-1.4024808E+002
 40
1.5
  0
CIRCLE
  8
3D_SICHTBARE_KANTEN
  6
CONTINUOUS
 62
40
 10
-6.6E+001
 20
-1.4024808E+002
 40
1.5
  0
CIRCLE
  8
3D_SICHTBARE_KANTEN
  6
CONTINUOUS
 62
40
 10
-7.45E+001
 20
-1.4024808E+002
 40
1.5
  0
CIRCLE
  8
3D_SICHTBARE_KANTEN
  6
CONTINUOUS
 62
40
 10
-9.15E+001
 20
-1.4024808E+002
 40
1.5
  0
CIRCLE
  8
3D_SICHTBARE_KANTEN
  6
CONTINUOUS
 62
40
 10
-5.75E+001
 20
-1.4874808E+002
 40
1.5
  0
CIRCLE
  8
3D_SICHTBARE_KANTEN
  6
CONTINUOUS
 62
40
 10
-6.6E+001
 20
-1.4874808E+002
 40
1.5
  0
CIRCLE
  8
3D_SICHTBARE_KANTEN
  6
CONTINUOUS
 62
40
 10
-7.45E+001
 20
-1.4874808E+002
 40
1.5
  0
CIRCLE
  8
3D_SICHTBARE_KANTEN
  6
CONTINUOUS
 62
40
 10
-8.3E+001
 20
-1.4874808E+002
 40
1.5
  0
CIRCLE
  8
3D_SICHTBARE_KANTEN
  6
CONTINUOUS
 62
40
 10
-9.15E+001
 20
-1.4874808E+002
 40
1.5
  0
LINE
  8
3D_SICHTBARE_KANTEN
  6
CONTINUOUS
 62
40
 10
-7.3670844E+001
 20
-1.4999808E+002
 11
-7.3714406E+001
 21
-1.4999808E+002
  0
ARC
  8
3D_SICHTBARE_KANTEN
  6
CONTINUOUS
 62
40
 10
-7.9E+001
 20
-1.3174808E+002
 40
1.9E+001
 50
2.8614127E+002
 51
2.8615216E+002
  0
LINE
  8
2D_SICHTBARE_KANTEN
  6
CONTINUOUS
 62
40
 10
-9.1500066E+001
 20
-8.8500035E+001
 11
-9.1500066E+001
 21
-9.3500051E+001
  0
LINE
  8
2D_SICHTBARE_KANTEN
  6
CONTINUOUS
 62
40
 10
0.0
 20
-7.4E+001
 11
0.0
 21
-2.89E+002
  0
LINE
  8
2D_SICHTBARE_KANTEN
  6
CONTINUOUS
 62
40
 10
-5.0E+001
 20
-8.9E+001
 11
-5.0E+001
 21
-2.89E+002
  0
LINE
  8
2D_SICHTBARE_KANTEN
  6
CONTINUOUS
 62
40
 10
0.0
 20
-7.4E+001
 11
-1.5E+001
 21
-7.4E+001
  0
LINE
  8
2D_SICHTBARE_KANTEN
  6
CONTINUOUS
 62
40
 10
0.0
 20
-7.0E+001
 11
-1.5E+001
 21
-7.0E+001
  0
LINE
  8
2D_SICHTBARE_KANTEN
  6
CONTINUOUS
 62
40
 10
0.0
 20
0.0
 11
0.0
 21
-7.0E+001
  0
LINE
  8
2D_SICHTBARE_KANTEN
  6
CONTINUOUS
 62
40
 10
-6.5E+001
 20
-1.74098E-001
 11
-6.5E+001
 21
-8.5E+001
  0
LINE
  8
2D_MITTELLINIEN
  6
CENTERLINE
 62
1
 10
1.6342387E+001
 20
-2.89E+002
 11
-6.7003785E+001
 21
-2.89E+002
  0
LINE
  8
2D_SICHTBARE_KANTEN
  6
CONTINUOUS
 62
40
 10
-1.5E+001
 20
-8.9E+001
 11
-5.0E+001
 21
-8.9E+001
  0
LINE
  8
2D_SICHTBARE_KANTEN
  6
CONTINUOUS
 62
40
 10
-1.5E+001
 20
-7.4E+001
 11
-1.5E+001
 21
-8.9E+001
  0
LINE
  8
2D_SICHTBARE_KANTEN
  6
CONTINUOUS
 62
40
 10
-1.5E+001
 20
-7.4E+001
 11
-1.5E+001
 21
-7.0E+001
  0
LINE
  8
99
  6
CONTINUOUS
 62
1
 10
-5.0E+001
 20
-1.115E+002
 11
-3.9E+001
 21
-1.115E+002
  0
LINE
  8
99
  6
CONTINUOUS
 62
1
 10
-3.9E+001
 20
-1.145E+002
 11
-5.0E+001
 21
-1.145E+002
  0
LINE
  8
2D_SICHTBARE_KANTEN
  6
CONTINUOUS
 62
40
 10
-5.0E+001
 20
-1.105E+002
 11
-3.9E+001
 21
-1.105E+002
  0
LINE
  8
2D_SICHTBARE_KANTEN
  6
CONTINUOUS
 62
40
 10
-3.9E+001
 20
-1.105E+002
 11
-3.9E+001
 21
-1.155E+002
  0
LINE
  8
2D_SICHTBARE_KANTEN
  6
CONTINUOUS
 62
40
 10
-3.9E+001
 20
-1.155E+002
 11
-5.0E+001
 21
-1.155E+002
  0
LINE
  8
99
  6
CONTINUOUS
 62
1
 10
-5.0000001E+001
 20
-1.5450001E+002
 11
-3.9000001E+001
 21
-1.5450001E+002
  0
LINE
  8
99
  6
CONTINUOUS
 62
1
 10
-3.9000001E+001
 20
-1.5750001E+002
 11
-5.0000001E+001
 21
-1.5750001E+002
  0
LINE
  8
2D_SICHTBARE_KANTEN
  6
CONTINUOUS
 62
40
 10
-5.0000001E+001
 20
-1.5350001E+002
 11
-3.9000001E+001
 21
-1.5350001E+002
  0
LINE
  8
2D_SICHTBARE_KANTEN
  6
CONTINUOUS
 62
40
 10
-3.9000001E+001
 20
-1.5350001E+002
 11
-3.9000001E+001
 21
-1.5850001E+002
  0
LINE
  8
2D_SICHTBARE_KANTEN
  6
CONTINUOUS
 62
40
 10
-3.9000001E+001
 20
-1.5850001E+002
 11
-5.0000001E+001
 21
-1.5850001E+002
  0
LINE
  8
2D_MITTELLINIEN
  6
CENTERLINE
 62
1
 10
-5.7677736E+001
 20
-1.5600001E+002
 11
-3.7218156E+001
 21
-1.5600001E+002
  0
LINE
  8
2D_MITTELLINIEN
  6
CENTERLINE
 62
1
 10
-5.7541016E+001
 20
-1.13E+002
 11
-3.4414022E+001
 21
-1.13E+002
  0
LINE
  8
2D_SICHTBARE_KANTEN
  6
CONTINUOUS
 62
40
 10
0.0
 20
0.0
 11
-6.5E+001
 21
0.0
  0
LINE
  8
2D_SICHTBARE_KANTEN
  6
CONTINUOUS
 62
40
 10
-6.5E+001
 20
-8.5E+001
 11
-1.5E+001
 21
-8.5E+001
  0
DIMENSION
  8
2D_BEMASSUNG
  6
CONTINUOUS
 62
1
  1
max.26
  2
*D1944
  3
DSTYLE1
 10
-6.5E+001
 20
2.4546515E+001
 11
-9.0948708E+001
 21
3.1048515E+001
 70
128
 13
-5.0E+001
 23
-8.9E+001
 14
-6.5E+001
 24
-1.74098E-001
 40
1.0E+001
 50
0.0
1001
ACAD
1000
DSTYLE
1002
{
1070
173
1070
0
1070
5
1000
_AH13
1002
}
  0
DIMENSION
  8
2D_BEMASSUNG
  6
CONTINUOUS
 62
1
  2
*D1945
  3
DSTYLE1
 10
4.4397289E+001
 20
-1.5600001E+002
 11
3.7895289E+001
 21
-1.3460805E+002
 70
128
 13
-3.4414022E+001
 23
-1.13E+002
 14
-3.7218156E+001
 24
-1.5600001E+002
 40
1.0E+001
 50
9.0E+001
1001
ACAD
1000
DSTYLE
1002
{
1070
173
1070
0
1070
5
1000
_AH13
1002
}
  0
DIMENSION
  8
2D_BEMASSUNG
  6
CONTINUOUS
 62
1
  2
*D1946
  3
DSTYLE1
 10
4.4625172E+001
 20
-8.5E+001
 11
3.8123172E+001
 21
-9.8361773E+001
 70
128
 13
-3.4414022E+001
 23
-1.13E+002
 14
-1.5E+001
 24
-8.5E+001
 40
1.0E+001
 50
9.0E+001
1001
ACAD
1000
DSTYLE
1002
{
1070
173
1070
0
1070
5
1000
_AH13
1002
}
  0
DIMENSION
  8
2D_BEMASSUNG
  6
CONTINUOUS
 62
1
  2
*D1947
  3
DSTYLE1
 10
6.9413875E+001
 20
-7.5E+001
 11
6.2911875E+001
 21
-1.1162897E+002
 70
128
 13
-3.7218156E+001
 23
-1.5600001E+002
 14
-5.1016037E+001
 24
-7.5E+001
 40
1.0E+001
 50
9.0E+001
1001
ACAD
1000
DSTYLE
1002
{
1070
173
1070
0
1070
5
1000
_AH13
1002
}
  0
LINE
  8
2D_MITTELLINIEN
  6
CENTERLINE
 62
1
 10
-4.9424502E+001
 20
-7.5E+001
 11
-9.45E+001
 21
-7.5E+001
  0
LINE
  8
2D_SICHTBARE_KANTEN
  6
CONTINUOUS
 62
40
 10
-5.1E+001
 20
-7.25E+001
 11
-6.5E+001
 21
-7.25E+001
  0
LINE
  8
2D_SICHTBARE_KANTEN
  6
CONTINUOUS
 62
40
 10
-5.1E+001
 20
-7.75E+001
 11
-6.5E+001
 21
-7.75E+001
  0
LINE
  8
2D_SICHTBARE_KANTEN
  6
CONTINUOUS
 62
40
 10
-5.1E+001
 20
-7.25E+001
 11
-5.1E+001
 21
-7.75E+001
  0
LINE
  8
2D_SICHTBARE_KANTEN
  6
CONTINUOUS
 62
1
 10
-5.1E+001
 20
-7.3E+001
 11
-6.5E+001
 21
-7.3E+001
  0
LINE
  8
2D_SICHTBARE_KANTEN
  6
CONTINUOUS
 62
1
 10
-5.1E+001
 20
-7.7E+001
 11
-6.5E+001
 21
-7.7E+001
  0
ARC
  8
3D_SICHTBARE_KANTEN
  6
CONTINUOUS
 62
40
 10
-9.3E+001
 20
-6.8E+001
 40
3.0
 50
8.9999987E+001
 51
1.8000001E+002
  0
ARC
  8
3D_SICHTBARE_KANTEN
  6
CONTINUOUS
 62
40
 10
-9.3E+001
 20
-8.2E+001
 40
3.0
 50
1.7999999E+002
 51
2.7000001E+002
  0
LINE
  8
3D_SICHTBARE_KANTEN
  6
CONTINUOUS
 62
40
 10
-9.3E+001
 20
-8.5E+001
 11
-6.5E+001
 21
-8.5E+001
  0
LINE
  8
3D_SICHTBARE_KANTEN
  6
CONTINUOUS
 62
40
 10
-9.6E+001
 20
-6.8E+001
 11
-9.6E+001
 21
-8.2E+001
  0
LINE
  8
3D_SICHTBARE_KANTEN
  6
CONTINUOUS
 62
40
 10
-6.5E+001
 20
-6.5E+001
 11
-9.3E+001
 21
-6.5E+001
  0
LINE
  8
3D_SICHTBARE_KANTEN
  6
CONTINUOUS
 62
1
 10
-9.3E+001
 20
-6.75E+001
 11
-6.5E+001
 21
-6.75E+001
  0
ARC
  8
3D_SICHTBARE_KANTEN
  6
CONTINUOUS
 62
1
 10
-9.3E+001
 20
-6.8E+001
 40
5.0E-001
 50
9.0E+001
 51
1.8E+002
  0
LINE
  8
3D_SICHTBARE_KANTEN
  6
CONTINUOUS
 62
1
 10
-9.35E+001
 20
-8.2E+001
 11
-9.35E+001
 21
-6.8E+001
  0
ARC
  8
3D_SICHTBARE_KANTEN
  6
CONTINUOUS
 62
1
 10
-9.3E+001
 20
-8.2E+001
 40
5.0E-001
 50
1.8E+002
 51
2.7E+002
  0
LINE
  8
3D_SICHTBARE_KANTEN
  6
CONTINUOUS
 62
1
 10
-6.5E+001
 20
-8.25E+001
 11
-9.3E+001
 21
-8.25E+001
  0
LINE
  8
3D_SICHTBARE_KANTEN
  6
CONTINUOUS
 62
1
 10
-9.3E+001
 20
-8.35E+001
 11
-6.5E+001
 21
-8.35E+001
  0
ARC
  8
3D_SICHTBARE_KANTEN
  6
CONTINUOUS
 62
1
 10
-9.3E+001
 20
-8.2E+001
 40
1.5
 50
1.8E+002
 51
2.7E+002
  0
LINE
  8
3D_SICHTBARE_KANTEN
  6
CONTINUOUS
 62
1
 10
-9.45E+001
 20
-6.8E+001
 11
-9.45E+001
 21
-8.2E+001
  0
ARC
  8
3D_SICHTBARE_KANTEN
  6
CONTINUOUS
 62
1
 10
-9.3E+001
 20
-6.8E+001
 40
1.5
 50
9.0E+001
 51
1.8E+002
  0
LINE
  8
3D_SICHTBARE_KANTEN
  6
CONTINUOUS
 62
1
 10
-6.5E+001
 20
-6.65E+001
 11
-9.3E+001
 21
-6.65E+001
  0
LINE
  8
3D_SICHTBARE_KANTEN
  6
CONTINUOUS
 62
40
 10
-6.5E+001
 20
-6.53E+001
 11
-6.5E+001
 21
-6.5E+001
  0
LINE
  8
3D_SICHTBARE_KANTEN
  6
CONTINUOUS
 62
40
 10
-6.5E+001
 20
-8.5E+001
 11
-6.5E+001
 21
-8.47E+001
  0
LINE
  8
3D_SICHTBARE_KANTEN
  6
CONTINUOUS
 62
40
 10
-6.5E+001
 20
-8.47E+001
 11
-6.5E+001
 21
-8.35E+001
  0
LINE
  8
3D_SICHTBARE_KANTEN
  6
CONTINUOUS
 62
1
 10
-6.5E+001
 20
-8.35E+001
 11
-6.5E+001
 21
-8.25E+001
  0
LINE
  8
3D_SICHTBARE_KANTEN
  6
CONTINUOUS
 62
40
 10
-6.5E+001
 20
-8.25E+001
 11
-6.5E+001
 21
-6.75E+001
  0
LINE
  8
3D_SICHTBARE_KANTEN
  6
CONTINUOUS
 62
1
 10
-6.5E+001
 20
-6.75E+001
 11
-6.5E+001
 21
-6.65E+001
  0
LINE
  8
3D_SICHTBARE_KANTEN
  6
CONTINUOUS
 62
40
 10
-6.5E+001
 20
-6.65E+001
 11
-6.5E+001
 21
-6.53E+001
  0
ARC
  8
2D_SICHTBARE_KANTEN
  6
CONTINUOUS
 62
40
 10
7.5
 20
-2.61008E+002
 40
1.5001402E+001
 50
2.4000309E+002
 51
2.9999691E+002
  0
ARC
  8
2D_SICHTBARE_KANTEN
  6
CONTINUOUS
 62
40
 10
7.5
 20
-2.0699E+002
 40
1.499967E+001
 50
5.9999272E+001
 51
1.2000073E+002
  0
LINE
  8
2D_SICHTBARE_KANTEN
  6
CONTINUOUS
 62
40
 10
0.0
 20
-2.74E+002
 11
1.5E+001
 21
-2.74E+002
  0
LINE
  8
2D_SICHTBARE_KANTEN
  6
CONTINUOUS
 62
40
 10
1.5E+001
 20
-2.74E+002
 11
1.5E+001
 21
-2.34E+002
  0
LINE
  8
2D_SICHTBARE_KANTEN
  6
CONTINUOUS
 62
40
 10
1.5E+001
 20
-2.34E+002
 11
0.0
 21
-2.34E+002
  0
LINE
  8
2D_SICHTBARE_KANTEN
  6
CONTINUOUS
 62
40
 10
0.0
 20
-2.34E+002
 11
0.0
 21
-2.74E+002
  0
LINE
  8
2D_SICHTBARE_KANTEN
  6
CONTINUOUS
 62
40
 10
0.0
 20
-2.34E+002
 11
1.5E+001
 21
-2.34E+002
  0
LINE
  8
2D_SICHTBARE_KANTEN
  6
CONTINUOUS
 62
40
 10
1.5E+001
 20
-2.34E+002
 11
1.5E+001
 21
-1.94E+002
  0
LINE
  8
2D_SICHTBARE_KANTEN
  6
CONTINUOUS
 62
40
 10
1.5E+001
 20
-1.94E+002
 11
0.0
 21
-1.94E+002
  0
LINE
  8
2D_SICHTBARE_KANTEN
  6
CONTINUOUS
 62
40
 10
0.0
 20
-1.94E+002
 11
0.0
 21
-2.34E+002
  0
LINE
  8
2D_MITTELLINIEN
  6
CENTERLINE
 62
1
 10
7.5
 20
-2.83134E+002
 11
7.5
 21
-1.86834E+002
  0
POINT
  8
Drafting_Hidden_Entities
  6
CONTINUOUS
 62
1
 10
0.0
 20
0.0
  0
ENDBLK
  0
BLOCK
  2
PNEW00
 10
0.0
 20
0.0
 70
0
  0
LINE
  8
2D_BEMASSUNG
  6
CENTERLINE
 62
150
 10
-5.0E+001
 20
-1.425E+002
 11
-5.0E+001
 21
-1.375E+002
  0
LINE
  8
2D_BEMASSUNG
  6
CENTERLINE
 62
150
 10
-5.0000001E+001
 20
-1.5850001E+002
 11
-5.0000001E+001
 21
-1.5350001E+002
  0
LINE
  8
2D_SICHTBARE_KANTEN
  6
CONTINUOUS
 62
40
 10
-6.7000001E+001
 20
-9.3500051E+001
 11
-6.7000001E+001
 21
-1.0175E+002
  0
LINE
  8
2D_SICHTBARE_KANTEN
  6
CONTINUOUS
 62
40
 10
-8.9000005E+001
 20
-1.0175E+002
 11
-8.9000005E+001
 21
-9.3500051E+001
  0
LINE
  8
2D_SICHTBARE_KANTEN
  6
CONTINUOUS
 62
40
 10
-9.1500066E+001
 20
-8.8500035E+001
 11
-6.7000001E+001
 21
-8.8500035E+001
  0
LINE
  8
2D_SICHTBARE_KANTEN
  6
CONTINUOUS
 62
40
 10
-9.1500066E+001
 20
-9.3500051E+001
 11
-7.0554217E+001
 21
-9.3500051E+001
  0
LINE
  8
2D_SICHTBARE_KANTEN
  6
CONTINUOUS
 62
40
 10
-6.7000001E+001
 20
-8.8500035E+001
 11
-6.7000001E+001
 21
-1.0175001E+002
  0
LINE
  8
2D_VERDECKTE_KANTEN
  6
HIDDEN
 62
1
 10
-5.0000001E+001
 20
-1.3175004E+002
 11
-5.0000001E+001
 21
-1.0400004E+002
  0
ARC
  8
2D_VERDECKTE_KANTEN
  6
HIDDEN
 62
1
 10
-5.0499983E+001
 20
-1.0400002E+002
 40
4.999816E-001
 50
3.5999789E+002
 51
4.5000211E+002
  0
LINE
  8
2D_VERDECKTE_KANTEN
  6
HIDDEN
 62
1
 10
-5.0500001E+001
 20
-1.0350004E+002
 11
-5.2092897E+001
 21
-1.0350004E+002
  0
ARC
  8
2D_VERDECKTE_KANTEN
  6
HIDDEN
 62
1
 10
-5.2092858E+001
 20
-1.0300002E+002
 40
5.0002333E-001
 50
2.2500241E+002
 51
2.6999548E+002
  0
LINE
  8
2D_VERDECKTE_KANTEN
  6
HIDDEN
 62
1
 10
-5.2446413E+001
 20
-1.033536E+002
 11
-5.3153566E+001
 21
-1.026465E+002
  0
ARC
  8
2D_VERDECKTE_KANTEN
  6
HIDDEN
 62
1
 10
-5.350707E+001
 20
-1.0299991E+002
 40
4.998634E-001
 50
4.499234E+001
 51
9.0001327E+001
  0
LINE
  8
2D_VERDECKTE_KANTEN
  6
HIDDEN
 62
1
 10
-5.3507082E+001
 20
-1.0250004E+002
 11
-5.3692873E+001
 21
-1.0250004E+002
  0
ARC
  8
2D_VERDECKTE_KANTEN
  6
HIDDEN
 62
1
 10
-5.3692947E+001
 20
-1.029999E+002
 40
4.9985856E-001
 50
8.9991448E+001
 51
1.3500789E+002
  0
LINE
  8
2D_VERDECKTE_KANTEN
  6
HIDDEN
 62
1
 10
-5.4046449E+001
 20
-1.026465E+002
 11
-5.4853517E+001
 21
-1.0345358E+002
  0
ARC
  8
2D_VERDECKTE_KANTEN
  6
HIDDEN
 62
1
 10
-5.4500151E+001
 20
-1.0380711E+002
 40
4.9985012E-001
 50
1.3498676E+002
 51
1.8000371E+002
  0
LINE
  8
2D_VERDECKTE_KANTEN
  6
HIDDEN
 62
1
 10
-5.5000001E+001
 20
-1.0380714E+002
 11
-5.5000001E+001
 21
-1.5969294E+002
  0
ARC
  8
2D_VERDECKTE_KANTEN
  6
HIDDEN
 62
1
 10
-5.4500042E+001
 20
-1.5969293E+002
 40
4.9995942E-001
 50
1.8000148E+002
 51
2.2500805E+002
  0
LINE
  8
2D_VERDECKTE_KANTEN
  6
HIDDEN
 62
1
 10
-5.4853517E+001
 20
-1.600465E+002
 11
-5.4046449E+001
 21
-1.6085359E+002
  0
ARC
  8
2D_VERDECKTE_KANTEN
  6
HIDDEN
 62
1
 10
-5.3692872E+001
 20
-1.605E+002
 40
5.0004068E-001
 50
2.2500076E+002
 51
2.6999991E+002
  0
LINE
  8
2D_VERDECKTE_KANTEN
  6
HIDDEN
 62
1
 10
-5.3692873E+001
 20
-1.6100004E+002
 11
-5.3507082E+001
 21
-1.6100004E+002
  0
ARC
  8
2D_VERDECKTE_KANTEN
  6
HIDDEN
 62
1
 10
-5.3507097E+001
 20
-1.6050011E+002
 40
4.9992995E-001
 50
2.7000183E+002
 51
3.150045E+002
  0
LINE
  8
2D_VERDECKTE_KANTEN
  6
HIDDEN
 62
1
 10
-5.3153566E+001
 20
-1.6085359E+002
 11
-5.2446413E+001
 21
-1.6014648E+002
  0
ARC
  8
2D_VERDECKTE_KANTEN
  6
HIDDEN
 62
1
 10
-5.2092867E+001
 20
-1.6050004E+002
 40
4.9999931E-001
 50
9.0003377E+001
 51
1.3499873E+002
  0
LINE
  8
2D_VERDECKTE_KANTEN
  6
HIDDEN
 62
1
 10
-5.2092897E+001
 20
-1.6000004E+002
 11
-5.0500001E+001
 21
-1.6000004E+002
  0
ARC
  8
2D_VERDECKTE_KANTEN
  6
HIDDEN
 62
1
 10
-5.05E+001
 20
-1.5950004E+002
 40
4.9999906E-001
 50
2.6999989E+002
 51
3.6000011E+002
  0
LINE
  8
2D_VERDECKTE_KANTEN
  6
HIDDEN
 62
1
 10
-5.0000001E+001
 20
-1.5950004E+002
 11
-5.0000001E+001
 21
-1.3175004E+002
  0
LINE
  8
2D_MITTELLINIEN
  6
CENTERLINE
 62
1
 10
-5.6067814E+001
 20
-1.13E+002
 11
-4.7049194E+001
 21
-1.13E+002
  0
LINE
  8
2D_MITTELLINIEN
  6
CENTERLINE
 62
1
 10
-5.6067814E+001
 20
-1.29E+002
 11
-4.7237732E+001
 21
-1.29E+002
  0
LINE
  8
2D_MITTELLINIEN
  6
CENTERLINE
 62
1
 10
-5.6067814E+001
 20
-1.4E+002
 11
-4.7666687E+001
 21
-1.4E+002
  0
LINE
  8
2D_MITTELLINIEN
  6
CENTERLINE
 62
1
 10
-5.6067877E+001
 20
-1.56E+002
 11
-4.7279297E+001
 21
-1.5600002E+002
  0
LINE
  8
2D_VERDECKTE_KANTEN
  6
HIDDEN
 62
1
 10
-5.5E+001
 20
-1.5050002E+002
 11
-5.2E+001
 21
-1.5350002E+002
  0
LINE
  8
2D_VERDECKTE_KANTEN
  6
HIDDEN
 62
1
 10
-5.2E+001
 20
-1.5350002E+002
 11
-5.2E+001
 21
-1.5850002E+002
  0
LINE
  8
2D_VERDECKTE_KANTEN
  6
HIDDEN
 62
1
 10
-5.2E+001
 20
-1.5850002E+002
 11
-5.4199951E+001
 21
-1.6070003E+002
  0
LINE
  8
2D_VERDECKTE_KANTEN
  6
HIDDEN
 62
1
 10
-5.5E+001
 20
-1.345E+002
 11
-5.2E+001
 21
-1.375E+002
  0
LINE
  8
2D_VERDECKTE_KANTEN
  6
HIDDEN
 62
1
 10
-5.2E+001
 20
-1.375E+002
 11
-5.2E+001
 21
-1.425E+002
  0
LINE
  8
2D_VERDECKTE_KANTEN
  6
HIDDEN
 62
1
 10
-5.2E+001
 20
-1.425E+002
 11
-5.5E+001
 21
-1.455E+002
  0
LINE
  8
2D_VERDECKTE_KANTEN
  6
HIDDEN
 62
1
 10
-5.2E+001
 20
-1.425E+002
 11
-5.0E+001
 21
-1.425E+002
  0
LINE
  8
2D_VERDECKTE_KANTEN
  6
HIDDEN
 62
1
 10
-5.0E+001
 20
-1.375E+002
 11
-5.2E+001
 21
-1.375E+002
  0
LINE
  8
2D_VERDECKTE_KANTEN
  6
HIDDEN
 62
1
 10
-5.2E+001
 20
-1.535E+002
 11
-5.0E+001
 21
-1.535E+002
  0
LINE
  8
2D_VERDECKTE_KANTEN
  6
HIDDEN
 62
1
 10
-5.0E+001
 20
-1.585E+002
 11
-5.2E+001
 21
-1.585E+002
  0
LINE
  8
2D_VERDECKTE_KANTEN
  6
HIDDEN
 62
1
 10
-5.5E+001
 20
-1.075E+002
 11
-5.2E+001
 21
-1.105E+002
  0
LINE
  8
2D_VERDECKTE_KANTEN
  6
HIDDEN
 62
1
 10
-5.2E+001
 20
-1.105E+002
 11
-5.2E+001
 21
-1.155E+002
  0
LINE
  8
2D_VERDECKTE_KANTEN
  6
HIDDEN
 62
1
 10
-5.2E+001
 20
-1.155E+002
 11
-5.5E+001
 21
-1.185E+002
  0
LINE
  8
2D_VERDECKTE_KANTEN
  6
HIDDEN
 62
1
 10
-5.2E+001
 20
-1.105E+002
 11
-5.0E+001
 21
-1.105E+002
  0
LINE
  8
2D_VERDECKTE_KANTEN
  6
HIDDEN
 62
1
 10
-5.0E+001
 20
-1.155E+002
 11
-5.2E+001
 21
-1.155E+002
  0
LINE
  8
2D_VERDECKTE_KANTEN
  6
HIDDEN
 62
1
 10
-5.5E+001
 20
-1.235E+002
 11
-5.2E+001
 21
-1.265E+002
  0
LINE
  8
2D_VERDECKTE_KANTEN
  6
HIDDEN
 62
1
 10
-5.2E+001
 20
-1.265E+002
 11
-5.2E+001
 21
-1.315E+002
  0
LINE
  8
2D_VERDECKTE_KANTEN
  6
HIDDEN
 62
1
 10
-5.2E+001
 20
-1.315E+002
 11
-5.5E+001
 21
-1.345E+002
  0
LINE
  8
2D_VERDECKTE_KANTEN
  6
HIDDEN
 62
1
 10
-5.2E+001
 20
-1.265E+002
 11
-5.0E+001
 21
-1.265E+002
  0
LINE
  8
2D_VERDECKTE_KANTEN
  6
HIDDEN
 62
1
 10
-5.0E+001
 20
-1.315E+002
 11
-5.2E+001
 21
-1.315E+002
  0
LINE
  8
2D_SICHTBARE_KANTEN
  6
CONTINUOUS
 62
40
 10
-5.0E+001
 20
-1.6175002E+002
 11
-5.0E+001
 21
-1.0175E+002
  0
LINE
  8
2D_SICHTBARE_KANTEN
  6
CONTINUOUS
 62
40
 10
-5.0E+001
 20
-1.0175E+002
 11
-9.9963135E+001
 21
-1.0175E+002
  0
ARC
  8
2D_SICHTBARE_KANTEN
  6
CONTINUOUS
 62
40
 10
-9.9963122E+001
 20
-1.0475001E+002
 40
3.0000131
 50
9.0000238E+001
 51
1.7996303E+002
  0
LINE
  8
2D_SICHTBARE_KANTEN
  6
CONTINUOUS
 62
40
 10
-1.0296313E+002
 20
-1.0474808E+002
 11
-1.0299805E+002
 21
-1.5874808E+002
  0
ARC
  8
2D_SICHTBARE_KANTEN
  6
CONTINUOUS
 62
40
 10
-9.999804E+001
 20
-1.5875002E+002
 40
3.0000076
 50
1.7996284E+002
 51
2.6999987E+002
  0
LINE
  8
2D_SICHTBARE_KANTEN
  6
CONTINUOUS
 62
40
 10
-9.9998047E+001
 20
-1.6175003E+002
 11
-5.0E+001
 21
-1.6175002E+002
  0
LINE
  8
2D_SICHTBARE_KANTEN
  6
CONTINUOUS
 62
40
 10
-6.7000001E+001
 20
-9.3500051E+001
 11
-7.0554217E+001
 21
-9.3500051E+001
  0
LINE
  8
2D_BEMASSUNG
  6
CENTERLINE
 62
150
 10
-5.0000001E+001
 20
-7.25E+001
 11
-5.0000001E+001
 21
-7.75E+001
  0
LINE
  8
2D_MITTELLINIEN
  6
CENTERLINE
 62
1
 10
-4.7440251E+001
 20
-7.5E+001
 11
-7.9500001E+001
 21
-7.5E+001
  0
LINE
  8
2D_SICHTBARE_KANTEN
  6
CONTINUOUS
 62
40
 10
-7.2000066E+001
 20
-8.5E+001
 11
-7.2000066E+001
 21
-8.7000051E+001
  0
LINE
  8
2D_SICHTBARE_KANTEN
  6
CONTINUOUS
 62
40
 10
-7.2000066E+001
 20
-8.7000051E+001
 11
-8.9000066E+001
 21
-8.7000051E+001
  0
LINE
  8
2D_SICHTBARE_KANTEN
  6
CONTINUOUS
 62
40
 10
-8.9000066E+001
 20
-8.7000051E+001
 11
-8.9000066E+001
 21
-8.5E+001
  0
LINE
  8
2D_SICHTBARE_KANTEN
  6
CONTINUOUS
 62
40
 10
-8.5475042E+001
 20
-8.7549988E+001
 11
-8.5475042E+001
 21
-8.7000051E+001
  0
LINE
  8
2D_SICHTBARE_KANTEN
  6
CONTINUOUS
 62
40
 10
-8.5475042E+001
 20
-8.7000051E+001
 11
-8.5475042E+001
 21
-8.8500035E+001
  0
LINE
  8
2D_SICHTBARE_KANTEN
  6
CONTINUOUS
 62
40
 10
-7.5524969E+001
 20
-8.7549988E+001
 11
-7.5524969E+001
 21
-8.7000051E+001
  0
LINE
  8
2D_SICHTBARE_KANTEN
  6
CONTINUOUS
 62
40
 10
-7.5524969E+001
 20
-8.7000051E+001
 11
-7.5525017E+001
 21
-8.8500035E+001
  0
CIRCLE
  8
3D_SICHTBARE_KANTEN
  6
CONTINUOUS
 62
40
 10
-8.3E+001
 20
-1.4024808E+002
 40
1.5
  0
CIRCLE
  8
3D_SICHTBARE_KANTEN
  6
CONTINUOUS
 62
40
 10
-5.75E+001
 20
-1.1474808E+002
 40
1.5
  0
CIRCLE
  8
3D_SICHTBARE_KANTEN
  6
CONTINUOUS
 62
40
 10
-6.6E+001
 20
-1.1474808E+002
 40
1.5
  0
CIRCLE
  8
3D_SICHTBARE_KANTEN
  6
CONTINUOUS
 62
40
 10
-7.45E+001
 20
-1.1474808E+002
 40
1.5
  0
CIRCLE
  8
3D_SICHTBARE_KANTEN
  6
CONTINUOUS
 62
40
 10
-8.3E+001
 20
-1.1474808E+002
 40
1.5
  0
CIRCLE
  8
3D_SICHTBARE_KANTEN
  6
CONTINUOUS
 62
40
 10
-9.15E+001
 20
-1.1474808E+002
 40
1.5
  0
CIRCLE
  8
3D_SICHTBARE_KANTEN
  6
CONTINUOUS
 62
40
 10
-5.75E+001
 20
-1.2324808E+002
 40
1.5
  0
CIRCLE
  8
3D_SICHTBARE_KANTEN
  6
CONTINUOUS
 62
40
 10
-6.6E+001
 20
-1.2324808E+002
 40
1.5
  0
CIRCLE
  8
3D_SICHTBARE_KANTEN
  6
CONTINUOUS
 62
40
 10
-7.45E+001
 20
-1.2324808E+002
 40
1.5
  0
CIRCLE
  8
3D_SICHTBARE_KANTEN
  6
CONTINUOUS
 62
40
 10
-8.3E+001
 20
-1.2324808E+002
 40
1.5
  0
CIRCLE
  8
3D_SICHTBARE_KANTEN
  6
CONTINUOUS
 62
40
 10
-9.15E+001
 20
-1.2324808E+002
 40
1.5
  0
CIRCLE
  8
3D_SICHTBARE_KANTEN
  6
CONTINUOUS
 62
40
 10
-5.75E+001
 20
-1.3174808E+002
 40
1.5
  0
CIRCLE
  8
3D_SICHTBARE_KANTEN
  6
CONTINUOUS
 62
40
 10
-6.6E+001
 20
-1.3174808E+002
 40
1.5
  0
CIRCLE
  8
3D_SICHTBARE_KANTEN
  6
CONTINUOUS
 62
40
 10
-7.45E+001
 20
-1.3174808E+002
 40
1.5
  0
CIRCLE
  8
3D_SICHTBARE_KANTEN
  6
CONTINUOUS
 62
40
 10
-8.3E+001
 20
-1.3174808E+002
 40
1.5
  0
CIRCLE
  8
3D_SICHTBARE_KANTEN
  6
CONTINUOUS
 62
40
 10
-9.15E+001
 20
-1.3174808E+002
 40
1.5
  0
CIRCLE
  8
3D_SICHTBARE_KANTEN
  6
CONTINUOUS
 62
40
 10
-5.75E+001
 20
-1.4024808E+002
 40
1.5
  0
CIRCLE
  8
3D_SICHTBARE_KANTEN
  6
CONTINUOUS
 62
40
 10
-6.6E+001
 20
-1.4024808E+002
 40
1.5
  0
CIRCLE
  8
3D_SICHTBARE_KANTEN
  6
CONTINUOUS
 62
40
 10
-7.45E+001
 20
-1.4024808E+002
 40
1.5
  0
CIRCLE
  8
3D_SICHTBARE_KANTEN
  6
CONTINUOUS
 62
40
 10
-9.15E+001
 20
-1.4024808E+002
 40
1.5
  0
CIRCLE
  8
3D_SICHTBARE_KANTEN
  6
CONTINUOUS
 62
40
 10
-5.75E+001
 20
-1.4874808E+002
 40
1.5
  0
CIRCLE
  8
3D_SICHTBARE_KANTEN
  6
CONTINUOUS
 62
40
 10
-6.6E+001
 20
-1.4874808E+002
 40
1.5
  0
CIRCLE
  8
3D_SICHTBARE_KANTEN
  6
CONTINUOUS
 62
40
 10
-7.45E+001
 20
-1.4874808E+002
 40
1.5
  0
CIRCLE
  8
3D_SICHTBARE_KANTEN
  6
CONTINUOUS
 62
40
 10
-8.3E+001
 20
-1.4874808E+002
 40
1.5
  0
CIRCLE
  8
3D_SICHTBARE_KANTEN
  6
CONTINUOUS
 62
40
 10
-9.15E+001
 20
-1.4874808E+002
 40
1.5
  0
LINE
  8
3D_SICHTBARE_KANTEN
  6
CONTINUOUS
 62
40
 10
-7.3670844E+001
 20
-1.4999808E+002
 11
-7.3714406E+001
 21
-1.4999808E+002
  0
ARC
  8
3D_SICHTBARE_KANTEN
  6
CONTINUOUS
 62
40
 10
-7.9E+001
 20
-1.3174808E+002
 40
1.9E+001
 50
2.8614127E+002
 51
2.8615216E+002
  0
LINE
  8
2D_SICHTBARE_KANTEN
  6
CONTINUOUS
 62
40
 10
-9.1500066E+001
 20
-8.8500035E+001
 11
-9.1500066E+001
 21
-9.3500051E+001
  0
LINE
  8
2D_SICHTBARE_KANTEN
  6
CONTINUOUS
 62
40
 10
0.0
 20
-7.4E+001
 11
0.0
 21
-2.89E+002
  0
LINE
  8
2D_SICHTBARE_KANTEN
  6
CONTINUOUS
 62
40
 10
-5.0E+001
 20
-8.9E+001
 11
-5.0E+001
 21
-2.89E+002
  0
LINE
  8
2D_SICHTBARE_KANTEN
  6
CONTINUOUS
 62
40
 10
0.0
 20
-7.4E+001
 11
-1.5E+001
 21
-7.4E+001
  0
LINE
  8
2D_SICHTBARE_KANTEN
  6
CONTINUOUS
 62
40
 10
0.0
 20
-7.0E+001
 11
-1.5E+001
 21
-7.0E+001
  0
LINE
  8
2D_SICHTBARE_KANTEN
  6
CONTINUOUS
 62
40
 10
0.0
 20
0.0
 11
0.0
 21
-7.0E+001
  0
LINE
  8
2D_SICHTBARE_KANTEN
  6
CONTINUOUS
 62
40
 10
-6.5E+001
 20
-1.74098E-001
 11
-6.5E+001
 21
-8.5E+001
  0
LINE
  8
2D_MITTELLINIEN
  6
CENTERLINE
 62
1
 10
1.6342387E+001
 20
-2.89E+002
 11
-6.7003785E+001
 21
-2.89E+002
  0
LINE
  8
2D_SICHTBARE_KANTEN
  6
CONTINUOUS
 62
40
 10
-1.5E+001
 20
-8.9E+001
 11
-5.0E+001
 21
-8.9E+001
  0
LINE
  8
2D_SICHTBARE_KANTEN
  6
CONTINUOUS
 62
40
 10
-1.5E+001
 20
-7.4E+001
 11
-1.5E+001
 21
-8.9E+001
  0
LINE
  8
2D_SICHTBARE_KANTEN
  6
CONTINUOUS
 62
40
 10
-1.5E+001
 20
-7.4E+001
 11
-1.5E+001
 21
-7.0E+001
  0
LINE
  8
99
  6
CONTINUOUS
 62
1
 10
-5.0E+001
 20
-1.115E+002
 11
-3.9E+001
 21
-1.115E+002
  0
LINE
  8
99
  6
CONTINUOUS
 62
1
 10
-3.9E+001
 20
-1.145E+002
 11
-5.0E+001
 21
-1.145E+002
  0
LINE
  8
2D_SICHTBARE_KANTEN
  6
CONTINUOUS
 62
40
 10
-5.0E+001
 20
-1.105E+002
 11
-3.9E+001
 21
-1.105E+002
  0
LINE
  8
2D_SICHTBARE_KANTEN
  6
CONTINUOUS
 62
40
 10
-3.9E+001
 20
-1.105E+002
 11
-3.9E+001
 21
-1.155E+002
  0
LINE
  8
2D_SICHTBARE_KANTEN
  6
CONTINUOUS
 62
40
 10
-3.9E+001
 20
-1.155E+002
 11
-5.0E+001
 21
-1.155E+002
  0
LINE
  8
99
  6
CONTINUOUS
 62
1
 10
-5.0000001E+001
 20
-1.5450001E+002
 11
-3.9000001E+001
 21
-1.5450001E+002
  0
LINE
  8
99
  6
CONTINUOUS
 62
1
 10
-3.9000001E+001
 20
-1.5750001E+002
 11
-5.0000001E+001
 21
-1.5750001E+002
  0
LINE
  8
2D_SICHTBARE_KANTEN
  6
CONTINUOUS
 62
40
 10
-5.0000001E+001
 20
-1.5350001E+002
 11
-3.9000001E+001
 21
-1.5350001E+002
  0
LINE
  8
2D_SICHTBARE_KANTEN
  6
CONTINUOUS
 62
40
 10
-3.9000001E+001
 20
-1.5350001E+002
 11
-3.9000001E+001
 21
-1.5850001E+002
  0
LINE
  8
2D_SICHTBARE_KANTEN
  6
CONTINUOUS
 62
40
 10
-3.9000001E+001
 20
-1.5850001E+002
 11
-5.0000001E+001
 21
-1.5850001E+002
  0
LINE
  8
2D_MITTELLINIEN
  6
CENTERLINE
 62
1
 10
-5.7677736E+001
 20
-1.5600001E+002
 11
-3.7218156E+001
 21
-1.5600001E+002
  0
LINE
  8
2D_MITTELLINIEN
  6
CENTERLINE
 62
1
 10
-5.7541016E+001
 20
-1.13E+002
 11
-3.4414022E+001
 21
-1.13E+002
  0
LINE
  8
2D_SICHTBARE_KANTEN
  6
CONTINUOUS
 62
40
 10
0.0
 20
0.0
 11
-6.5E+001
 21
0.0
  0
LINE
  8
2D_SICHTBARE_KANTEN
  6
CONTINUOUS
 62
40
 10
-6.5E+001
 20
-8.5E+001
 11
-1.5E+001
 21
-8.5E+001
  0
DIMENSION
  8
2D_BEMASSUNG
  6
CONTINUOUS
 62
1
  1
max.26
  2
*D2109
  3
DSTYLE1
 10
-6.5E+001
 20
2.4546515E+001
 11
-9.0948708E+001
 21
3.1048515E+001
 70
128
 13
-5.0E+001
 23
-8.9E+001
 14
-6.5E+001
 24
-1.74098E-001
 40
1.0E+001
 50
0.0
1001
ACAD
1000
DSTYLE
1002
{
1070
173
1070
0
1070
5
1000
_AH13
1002
}
  0
DIMENSION
  8
2D_BEMASSUNG
  6
CONTINUOUS
 62
1
  2
*D2110
  3
DSTYLE1
 10
4.4397289E+001
 20
-1.5600001E+002
 11
3.7895289E+001
 21
-1.3460805E+002
 70
128
 13
-3.4414022E+001
 23
-1.13E+002
 14
-3.7218156E+001
 24
-1.5600001E+002
 40
1.0E+001
 50
9.0E+001
1001
ACAD
1000
DSTYLE
1002
{
1070
173
1070
0
1070
5
1000
_AH13
1002
}
  0
DIMENSION
  8
2D_BEMASSUNG
  6
CONTINUOUS
 62
1
  2
*D2111
  3
DSTYLE1
 10
4.4625172E+001
 20
-8.5E+001
 11
3.8123172E+001
 21
-9.8361773E+001
 70
128
 13
-3.4414022E+001
 23
-1.13E+002
 14
-1.5E+001
 24
-8.5E+001
 40
1.0E+001
 50
9.0E+001
1001
ACAD
1000
DSTYLE
1002
{
1070
173
1070
0
1070
5
1000
_AH13
1002
}
  0
DIMENSION
  8
2D_BEMASSUNG
  6
CONTINUOUS
 62
1
  2
*D2112
  3
DSTYLE1
 10
6.9413875E+001
 20
-7.5E+001
 11
6.2911875E+001
 21
-1.1162897E+002
 70
128
 13
-3.7218156E+001
 23
-1.5600001E+002
 14
-5.1016037E+001
 24
-7.5E+001
 40
1.0E+001
 50
9.0E+001
1001
ACAD
1000
DSTYLE
1002
{
1070
173
1070
0
1070
5
1000
_AH13
1002
}
  0
LINE
  8
2D_MITTELLINIEN
  6
CENTERLINE
 62
1
 10
-4.9424502E+001
 20
-7.5E+001
 11
-9.45E+001
 21
-7.5E+001
  0
LINE
  8
2D_SICHTBARE_KANTEN
  6
CONTINUOUS
 62
40
 10
-5.1E+001
 20
-7.25E+001
 11
-6.5E+001
 21
-7.25E+001
  0
LINE
  8
2D_SICHTBARE_KANTEN
  6
CONTINUOUS
 62
40
 10
-5.1E+001
 20
-7.75E+001
 11
-6.5E+001
 21
-7.75E+001
  0
LINE
  8
2D_SICHTBARE_KANTEN
  6
CONTINUOUS
 62
40
 10
-5.1E+001
 20
-7.25E+001
 11
-5.1E+001
 21
-7.75E+001
  0
LINE
  8
2D_SICHTBARE_KANTEN
  6
CONTINUOUS
 62
1
 10
-5.1E+001
 20
-7.3E+001
 11
-6.5E+001
 21
-7.3E+001
  0
LINE
  8
2D_SICHTBARE_KANTEN
  6
CONTINUOUS
 62
1
 10
-5.1E+001
 20
-7.7E+001
 11
-6.5E+001
 21
-7.7E+001
  0
ARC
  8
3D_SICHTBARE_KANTEN
  6
CONTINUOUS
 62
40
 10
-9.3E+001
 20
-6.8E+001
 40
3.0
 50
8.9999987E+001
 51
1.8000001E+002
  0
ARC
  8
3D_SICHTBARE_KANTEN
  6
CONTINUOUS
 62
40
 10
-9.3E+001
 20
-8.2E+001
 40
3.0
 50
1.7999999E+002
 51
2.7000001E+002
  0
LINE
  8
3D_SICHTBARE_KANTEN
  6
CONTINUOUS
 62
40
 10
-9.3E+001
 20
-8.5E+001
 11
-6.5E+001
 21
-8.5E+001
  0
LINE
  8
3D_SICHTBARE_KANTEN
  6
CONTINUOUS
 62
40
 10
-9.6E+001
 20
-6.8E+001
 11
-9.6E+001
 21
-8.2E+001
  0
LINE
  8
3D_SICHTBARE_KANTEN
  6
CONTINUOUS
 62
40
 10
-6.5E+001
 20
-6.5E+001
 11
-9.3E+001
 21
-6.5E+001
  0
LINE
  8
3D_SICHTBARE_KANTEN
  6
CONTINUOUS
 62
1
 10
-9.3E+001
 20
-6.75E+001
 11
-6.5E+001
 21
-6.75E+001
  0
ARC
  8
3D_SICHTBARE_KANTEN
  6
CONTINUOUS
 62
1
 10
-9.3E+001
 20
-6.8E+001
 40
5.0E-001
 50
9.0E+001
 51
1.8E+002
  0
LINE
  8
3D_SICHTBARE_KANTEN
  6
CONTINUOUS
 62
1
 10
-9.35E+001
 20
-8.2E+001
 11
-9.35E+001
 21
-6.8E+001
  0
ARC
  8
3D_SICHTBARE_KANTEN
  6
CONTINUOUS
 62
1
 10
-9.3E+001
 20
-8.2E+001
 40
5.0E-001
 50
1.8E+002
 51
2.7E+002
  0
LINE
  8
3D_SICHTBARE_KANTEN
  6
CONTINUOUS
 62
1
 10
-6.5E+001
 20
-8.25E+001
 11
-9.3E+001
 21
-8.25E+001
  0
LINE
  8
3D_SICHTBARE_KANTEN
  6
CONTINUOUS
 62
1
 10
-9.3E+001
 20
-8.35E+001
 11
-6.5E+001
 21
-8.35E+001
  0
ARC
  8
3D_SICHTBARE_KANTEN
  6
CONTINUOUS
 62
1
 10
-9.3E+001
 20
-8.2E+001
 40
1.5
 50
1.8E+002
 51
2.7E+002
  0
LINE
  8
3D_SICHTBARE_KANTEN
  6
CONTINUOUS
 62
1
 10
-9.45E+001
 20
-6.8E+001
 11
-9.45E+001
 21
-8.2E+001
  0
ARC
  8
3D_SICHTBARE_KANTEN
  6
CONTINUOUS
 62
1
 10
-9.3E+001
 20
-6.8E+001
 40
1.5
 50
9.0E+001
 51
1.8E+002
  0
LINE
  8
3D_SICHTBARE_KANTEN
  6
CONTINUOUS
 62
1
 10
-6.5E+001
 20
-6.65E+001
 11
-9.3E+001
 21
-6.65E+001
  0
LINE
  8
3D_SICHTBARE_KANTEN
  6
CONTINUOUS
 62
40
 10
-6.5E+001
 20
-6.53E+001
 11
-6.5E+001
 21
-6.5E+001
  0
LINE
  8
3D_SICHTBARE_KANTEN
  6
CONTINUOUS
 62
40
 10
-6.5E+001
 20
-8.5E+001
 11
-6.5E+001
 21
-8.47E+001
  0
LINE
  8
3D_SICHTBARE_KANTEN
  6
CONTINUOUS
 62
40
 10
-6.5E+001
 20
-8.47E+001
 11
-6.5E+001
 21
-8.35E+001
  0
LINE
  8
3D_SICHTBARE_KANTEN
  6
CONTINUOUS
 62
1
 10
-6.5E+001
 20
-8.35E+001
 11
-6.5E+001
 21
-8.25E+001
  0
LINE
  8
3D_SICHTBARE_KANTEN
  6
CONTINUOUS
 62
40
 10
-6.5E+001
 20
-8.25E+001
 11
-6.5E+001
 21
-6.75E+001
  0
LINE
  8
3D_SICHTBARE_KANTEN
  6
CONTINUOUS
 62
1
 10
-6.5E+001
 20
-6.75E+001
 11
-6.5E+001
 21
-6.65E+001
  0
LINE
  8
3D_SICHTBARE_KANTEN
  6
CONTINUOUS
 62
40
 10
-6.5E+001
 20
-6.65E+001
 11
-6.5E+001
 21
-6.53E+001
  0
ARC
  8
2D_SICHTBARE_KANTEN
  6
CONTINUOUS
 62
40
 10
7.5
 20
-2.61008E+002
 40
1.5001402E+001
 50
2.4000309E+002
 51
2.9999691E+002
  0
ARC
  8
2D_SICHTBARE_KANTEN
  6
CONTINUOUS
 62
40
 10
7.5
 20
-2.0699E+002
 40
1.499967E+001
 50
5.9999272E+001
 51
1.2000073E+002
  0
LINE
  8
2D_SICHTBARE_KANTEN
  6
CONTINUOUS
 62
40
 10
0.0
 20
-2.74E+002
 11
1.5E+001
 21
-2.74E+002
  0
LINE
  8
2D_SICHTBARE_KANTEN
  6
CONTINUOUS
 62
40
 10
1.5E+001
 20
-2.74E+002
 11
1.5E+001
 21
-2.34E+002
  0
LINE
  8
2D_SICHTBARE_KANTEN
  6
CONTINUOUS
 62
40
 10
1.5E+001
 20
-2.34E+002
 11
0.0
 21
-2.34E+002
  0
LINE
  8
2D_SICHTBARE_KANTEN
  6
CONTINUOUS
 62
40
 10
0.0
 20
-2.34E+002
 11
0.0
 21
-2.74E+002
  0
LINE
  8
2D_SICHTBARE_KANTEN
  6
CONTINUOUS
 62
40
 10
0.0
 20
-2.34E+002
 11
1.5E+001
 21
-2.34E+002
  0
LINE
  8
2D_SICHTBARE_KANTEN
  6
CONTINUOUS
 62
40
 10
1.5E+001
 20
-2.34E+002
 11
1.5E+001
 21
-1.94E+002
  0
LINE
  8
2D_SICHTBARE_KANTEN
  6
CONTINUOUS
 62
40
 10
1.5E+001
 20
-1.94E+002
 11
0.0
 21
-1.94E+002
  0
LINE
  8
2D_SICHTBARE_KANTEN
  6
CONTINUOUS
 62
40
 10
0.0
 20
-1.94E+002
 11
0.0
 21
-2.34E+002
  0
LINE
  8
2D_MITTELLINIEN
  6
CENTERLINE
 62
1
 10
7.5
 20
-2.83134E+002
 11
7.5
 21
-1.86834E+002
  0
POINT
  8
Drafting_Hidden_Entities
  6
CONTINUOUS
 62
1
 10
0.0
 20
0.0
  0
ENDBLK
  0
BLOCK
  2
UU
 10
0.0
 20
0.0
 70
0
  0
TEXT
  8
2D_TEXT
  6
CONTINUOUS
 62
1
 10
-1.4380094E+001
 20
1.4994001
 40
1.8000001
  1
"Weitergabe sowie Vervielfältigung dieser Unterlage,
 41
6.7067308E-001
 50
9.0E+001
 11
-1.4380094E+001
 21
5.9940003E-001
 73
2
  0
TEXT
  8
2D_TEXT
  6
CONTINUOUS
 62
1
 10
-1.1380094E+001
 20
1.4994001
 40
1.8000001
  1
Verwertung und Mitteilung ihres Inhalts nicht gestattet,
 41
6.7098214E-001
 50
9.0E+001
 11
-1.1380094E+001
 21
5.9940003E-001
 73
2
  0
TEXT
  8
2D_TEXT
  6
CONTINUOUS
 62
1
 10
-8.3800941
 20
1.4994001
 40
1.8000001
  1
soweit nicht ausdrücklich zugestanden. Zuwiederhandlungen
 41
6.7105263E-001
 50
9.0E+001
 11
-8.3800941
 21
5.9940003E-001
 73
2
  0
TEXT
  8
2D_TEXT
  6
CONTINUOUS
 62
1
 10
-5.3800941
 20
1.4994001
 40
1.8000001
  1
verpflichten zu Schadenersatz. Alle Rechte für den Fall
 41
6.7090909E-001
 50
9.0E+001
 11
-5.3800941
 21
5.9940003E-001
 73
2
  0
TEXT
  8
2D_TEXT
  6
CONTINUOUS
 62
1
 10
-2.3800941
 20
1.4994001
 40
1.8000001
  1
der Patenterteilung oder Gebrauchsmuster-Eintragung vorbehalten."
 41
6.7153846E-001
 50
9.0E+001
 11
-2.3800941
 21
5.9940003E-001
 73
2
  0
POINT
  8
Drafting_Hidden_Entities
  6
CONTINUOUS
 62
1
 10
0.0
 20
0.0
  0
ENDBLK
  0
BLOCK
  2
44
 10
0.0
 20
0.0
 70
0
  0
ARC
  8
2D_SICHTBARE_KANTEN
  6
CONTINUOUS
 62
40
 10
0.0
 20
-6.7008E+001
 40
1.5001402E+001
 50
2.4000309E+002
 51
2.9999691E+002
  0
ARC
  8
2D_SICHTBARE_KANTEN
  6
CONTINUOUS
 62
40
 10
0.0
 20
-1.299E+001
 40
1.499967E+001
 50
5.9999272E+001
 51
1.2000073E+002
  0
LINE
  8
2D_SICHTBARE_KANTEN
  6
CONTINUOUS
 62
40
 10
7.5
 20
-8.0E+001
 11
-7.5
 21
-8.0E+001
  0
LINE
  8
2D_SICHTBARE_KANTEN
  6
CONTINUOUS
 62
40
 10
-7.5
 20
-8.0E+001
 11
-7.5
 21
-4.0E+001
  0
LINE
  8
2D_SICHTBARE_KANTEN
  6
CONTINUOUS
 62
40
 10
-7.5
 20
-4.0E+001
 11
7.5
 21
-4.0E+001
  0
LINE
  8
2D_SICHTBARE_KANTEN
  6
CONTINUOUS
 62
40
 10
7.5
 20
-4.0E+001
 11
7.5
 21
-8.0E+001
  0
LINE
  8
2D_SICHTBARE_KANTEN
  6
CONTINUOUS
 62
40
 10
7.5
 20
-4.0E+001
 11
-7.5
 21
-4.0E+001
  0
LINE
  8
2D_SICHTBARE_KANTEN
  6
CONTINUOUS
 62
40
 10
-7.5
 20
-4.0E+001
 11
-7.5
 21
0.0
  0
LINE
  8
2D_SICHTBARE_KANTEN
  6
CONTINUOUS
 62
40
 10
-7.5
 20
0.0
 11
7.5
 21
0.0
  0
LINE
  8
2D_SICHTBARE_KANTEN
  6
CONTINUOUS
 62
40
 10
7.5
 20
0.0
 11
7.5
 21
-4.0E+001
  0
LINE
  8
2D_MITTELLINIEN
  6
CENTERLINE
 62
1
 10
0.0
 20
-8.9134E+001
 11
0.0
 21
7.166
  0
POINT
  8
Drafting_Hidden_Entities
  6
CONTINUOUS
 62
1
 10
0.0
 20
0.0
  0
ENDBLK
  0
BLOCK
  2
22
 10
0.0
 20
0.0
 70
0
  0
LINE
  8
99
  6
CONTINUOUS
 62
1
 10
-1.4237E-006
 20
1.7822777
 11
1.0999999E+001
 21
1.7822777
  0
LINE
  8
99
  6
CONTINUOUS
 62
1
 10
1.0999999E+001
 20
-1.2177223
 11
-1.4237E-006
 21
-1.2177223
  0
LINE
  8
2D_SICHTBARE_KANTEN
  6
CONTINUOUS
 62
40
 10
-1.4237E-006
 20
2.7822777
 11
1.0999999E+001
 21
2.7822777
  0
LINE
  8
2D_SICHTBARE_KANTEN
  6
CONTINUOUS
 62
40
 10
1.0999999E+001
 20
2.7822777
 11
1.0999999E+001
 21
-2.2177223
  0
LINE
  8
2D_SICHTBARE_KANTEN
  6
CONTINUOUS
 62
40
 10
1.0999999E+001
 20
-2.2177223
 11
-1.4237E-006
 21
-2.2177223
  0
LINE
  8
2D_MITTELLINIEN
  6
CENTERLINE
 62
1
 10
-7.6777358
 20
2.8227773E-001
 11
1.2781844E+001
 21
2.8227773E-001
  0
POINT
  8
Drafting_Hidden_Entities
  6
CONTINUOUS
 62
1
 10
0.0
 20
0.0
  0
ENDBLK
  0
BLOCK
  2
*TX109
  3
*TX
 10
0.0
 20
0.0
 70
65
  0
TEXT
  8
2D_TEXT
  6
CONTINUOUS
 62
40
 10
6.46875
 20
5.0
 40
1.0E+001
  1
  
 41
6.46875E-001
 72
1
 11
0.0
 21
0.0
 73
2
  0
TEXT
  8
2D_TEXT
  6
CONTINUOUS
 62
40
 10
2.5875E+001
 20
-1.0E+001
 40
1.0E+001
  1
12.12.05
 41
6.46875E-001
 72
1
 11
0.0
 21
-1.5E+001
 73
2
  0
ENDBLK
  0
BLOCK
  2
_AH1
 70
0
 10
0.0
 20
0.0
  3
_AH1
  0
LINE
  8
0
  6
CONTINUOUS
 62
0
 10
-1.0
 20
1.66667E-001
 11
0.0
 21
0.0
  0
LINE
  8
0
  6
CONTINUOUS
 62
0
 10
0.0
 20
0.0
 11
-1.0
 21
-1.66667E-001
  0
LINE
  8
0
  6
CONTINUOUS
 62
0
 10
-1.0
 20
1.66667E-001
 11
-1.0
 21
-1.66667E-001
  0
LINE
  8
0
  6
CONTINUOUS
 62
0
 10
0.0
 20
0.0
 11
-1.0
 21
0.0
  0
ENDBLK
  0
BLOCK
  2
_AH2
 70
0
 10
0.0
 20
0.0
  3
_AH2
  0
LINE
  8
0
  6
CONTINUOUS
 62
0
 10
-1.0
 20
1.66667E-001
 11
0.0
 21
0.0
  0
LINE
  8
0
  6
CONTINUOUS
 62
0
 10
0.0
 20
0.0
 11
-1.0
 21
-1.66667E-001
  0
LINE
  8
0
  6
CONTINUOUS
 62
0
 10
0.0
 20
0.0
 11
-1.0
 21
0.0
  0
ENDBLK
  0
BLOCK
  2
*D953
  3
*D
 10
0.0
 20
0.0
 70
65
  0
LINE
  8
2D_BEMASSUNG
  6
CONTINUOUS
 62
1
 10
0.0
 20
1.0E+002
 11
0.0
 21
1.5827326E+002
  0
LINE
  8
2D_BEMASSUNG
  6
CONTINUOUS
 62
1
 10
-7.5
 20
1.4441295E+002
 11
-7.5
 21
1.5827326E+002
  0
LINE
  8
2D_BEMASSUNG
  6
CONTINUOUS
 62
1
 10
8.0
 20
1.5677326E+002
 11
-7.5
 21
1.5677326E+002
  0
LINE
  8
2D_BEMASSUNG
  6
CONTINUOUS
 62
1
 10
-7.5
 20
1.5677326E+002
 11
-3.0374354E+001
 21
1.5677326E+002
  0
INSERT
  2
_AH13
  8
2D_BEMASSUNG
 62
1
 10
0.0
 20
3.1354652E+002
 41
8.0
 42
8.0
 43
8.0
 50
5.4E+002
  0
INSERT
  2
_AH13
  8
2D_BEMASSUNG
 62
1
 10
-1.5E+001
 20
3.1354652E+002
 41
8.0
 42
8.0
 43
8.0
 50
7.2E+002
  0
TEXT
  8
2D_BEMASSUNG
  6
CONTINUOUS
 62
1
 10
-2.8874354E+001
 20
1.5827426E+002
 40
3.5
  1
max.26
 41
8.0E-001
 50
3.6E+002
  0
ENDBLK
  0
BLOCK
  2
*D954
  3
*D
 10
0.0
 20
0.0
 70
65
  0
LINE
  8
2D_BEMASSUNG
  6
CONTINUOUS
 62
1
 10
7.792989
 20
8.8E+001
 11
4.8698645E+001
 21
8.8E+001
  0
LINE
  8
2D_BEMASSUNG
  6
CONTINUOUS
 62
1
 10
6.3909218
 20
6.6499994E+001
 11
4.8698645E+001
 21
6.6499994E+001
  0
LINE
  8
2D_BEMASSUNG
  6
CONTINUOUS
 62
1
 10
4.7198645E+001
 20
8.8E+001
 11
4.7198645E+001
 21
7.7195973E+001
  0
LINE
  8
2D_BEMASSUNG
  6
CONTINUOUS
 62
1
 10
4.7198645E+001
 20
6.6499994E+001
 11
4.7198645E+001
 21
7.7195973E+001
  0
INSERT
  2
_AH13
  8
2D_BEMASSUNG
 62
1
 10
9.4397289E+001
 20
1.76E+002
 41
8.0
 42
8.0
 43
8.0
 50
4.5E+002
  0
INSERT
  2
_AH13
  8
2D_BEMASSUNG
 62
1
 10
9.4397289E+001
 20
1.3299999E+002
 41
8.0
 42
8.0
 43
8.0
 50
6.3E+002
  0
TEXT
  8
2D_BEMASSUNG
  6
CONTINUOUS
 62
1
 10
4.5697645E+001
 20
7.4395973E+001
 40
3.5
  1
43
 41
8.0E-001
 50
9.0E+001
  0
ENDBLK
  0
BLOCK
  2
*D955
  3
*D
 10
0.0
 20
0.0
 70
65
  0
LINE
  8
2D_BEMASSUNG
  6
CONTINUOUS
 62
1
 10
7.792989
 20
8.8E+001
 11
4.8812586E+001
 21
8.8E+001
  0
LINE
  8
2D_BEMASSUNG
  6
CONTINUOUS
 62
1
 10
1.75E+001
 20
1.02E+002
 11
4.8812586E+001
 21
1.02E+002
  0
LINE
  8
2D_BEMASSUNG
  6
CONTINUOUS
 62
1
 10
4.7312586E+001
 20
8.8E+001
 11
4.7312586E+001
 21
9.5319114E+001
  0
LINE
  8
2D_BEMASSUNG
  6
CONTINUOUS
 62
1
 10
4.7312586E+001
 20
1.02E+002
 11
4.7312586E+001
 21
9.5319114E+001
  0
INSERT
  2
_AH13
  8
2D_BEMASSUNG
 62
1
 10
9.4625172E+001
 20
1.76E+002
 41
8.0
 42
8.0
 43
8.0
 50
2.7E+002
  0
INSERT
  2
_AH13
  8
2D_BEMASSUNG
 62
1
 10
9.4625172E+001
 20
2.04E+002
 41
8.0
 42
8.0
 43
8.0
 50
4.5E+002
  0
TEXT
  8
2D_BEMASSUNG
  6
CONTINUOUS
 62
1
 10
4.5811586E+001
 20
9.2519114E+001
 40
3.5
  1
28
 41
8.0E-001
 50
9.0E+001
  0
ENDBLK
  0
BLOCK
  2
*D956
  3
*D
 10
0.0
 20
0.0
 70
65
  0
LINE
  8
2D_BEMASSUNG
  6
CONTINUOUS
 62
1
 10
6.3909218
 20
6.6499994E+001
 11
6.1206938E+001
 21
6.6499994E+001
  0
LINE
  8
2D_BEMASSUNG
  6
CONTINUOUS
 62
1
 10
-5.0801849E-001
 20
1.07E+002
 11
6.1206938E+001
 21
1.07E+002
  0
LINE
  8
2D_BEMASSUNG
  6
CONTINUOUS
 62
1
 10
5.9706938E+001
 20
6.6499994E+001
 11
5.9706938E+001
 21
8.8685517E+001
  0
LINE
  8
2D_BEMASSUNG
  6
CONTINUOUS
 62
1
 10
5.9706938E+001
 20
1.07E+002
 11
5.9706938E+001
 21
8.8685517E+001
  0
INSERT
  2
_AH13
  8
2D_BEMASSUNG
 62
1
 10
1.1941388E+002
 20
1.3299999E+002
 41
8.0
 42
8.0
 43
8.0
 50
2.7E+002
  0
INSERT
  2
_AH13
  8
2D_BEMASSUNG
 62
1
 10
1.1941388E+002
 20
2.14E+002
 41
8.0
 42
8.0
 43
8.0
 50
4.5E+002
  0
TEXT
  8
2D_BEMASSUNG
  6
CONTINUOUS
 62
1
 10
5.8205937E+001
 20
8.5885517E+001
 40
3.5
  1
81
 41
8.0E-001
 50
9.0E+001
  0
ENDBLK
  0
BLOCK
  2
*D1125
  3
*D
 10
0.0
 20
0.0
 70
65
  0
LINE
  8
2D_BEMASSUNG
  6
CONTINUOUS
 62
1
 10
0.0
 20
1.0E+002
 11
0.0
 21
1.5827326E+002
  0
LINE
  8
2D_BEMASSUNG
  6
CONTINUOUS
 62
1
 10
-7.5
 20
1.4441295E+002
 11
-7.5
 21
1.5827326E+002
  0
LINE
  8
2D_BEMASSUNG
  6
CONTINUOUS
 62
1
 10
8.0
 20
1.5677326E+002
 11
-7.5
 21
1.5677326E+002
  0
LINE
  8
2D_BEMASSUNG
  6
CONTINUOUS
 62
1
 10
-7.5
 20
1.5677326E+002
 11
-3.0374354E+001
 21
1.5677326E+002
  0
INSERT
  2
_AH13
  8
2D_BEMASSUNG
 62
1
 10
0.0
 20
3.1354652E+002
 41
8.0
 42
8.0
 43
8.0
 50
5.4E+002
  0
INSERT
  2
_AH13
  8
2D_BEMASSUNG
 62
1
 10
-1.5E+001
 20
3.1354652E+002
 41
8.0
 42
8.0
 43
8.0
 50
7.2E+002
  0
TEXT
  8
2D_BEMASSUNG
  6
CONTINUOUS
 62
1
 10
-2.8874354E+001
 20
1.5827426E+002
 40
3.5
  1
max.26
 41
8.0E-001
 50
3.6E+002
  0
ENDBLK
  0
BLOCK
  2
*D1126
  3
*D
 10
0.0
 20
0.0
 70
65
  0
LINE
  8
2D_BEMASSUNG
  6
CONTINUOUS
 62
1
 10
7.792989
 20
8.8E+001
 11
4.8698645E+001
 21
8.8E+001
  0
LINE
  8
2D_BEMASSUNG
  6
CONTINUOUS
 62
1
 10
6.3909218
 20
6.6499994E+001
 11
4.8698645E+001
 21
6.6499994E+001
  0
LINE
  8
2D_BEMASSUNG
  6
CONTINUOUS
 62
1
 10
4.7198645E+001
 20
8.8E+001
 11
4.7198645E+001
 21
7.7195973E+001
  0
LINE
  8
2D_BEMASSUNG
  6
CONTINUOUS
 62
1
 10
4.7198645E+001
 20
6.6499994E+001
 11
4.7198645E+001
 21
7.7195973E+001
  0
INSERT
  2
_AH13
  8
2D_BEMASSUNG
 62
1
 10
9.4397289E+001
 20
1.76E+002
 41
8.0
 42
8.0
 43
8.0
 50
4.5E+002
  0
INSERT
  2
_AH13
  8
2D_BEMASSUNG
 62
1
 10
9.4397289E+001
 20
1.3299999E+002
 41
8.0
 42
8.0
 43
8.0
 50
6.3E+002
  0
TEXT
  8
2D_BEMASSUNG
  6
CONTINUOUS
 62
1
 10
4.5697645E+001
 20
7.4395973E+001
 40
3.5
  1
43
 41
8.0E-001
 50
9.0E+001
  0
ENDBLK
  0
BLOCK
  2
*D1127
  3
*D
 10
0.0
 20
0.0
 70
65
  0
LINE
  8
2D_BEMASSUNG
  6
CONTINUOUS
 62
1
 10
7.792989
 20
8.8E+001
 11
4.8812586E+001
 21
8.8E+001
  0
LINE
  8
2D_BEMASSUNG
  6
CONTINUOUS
 62
1
 10
1.75E+001
 20
1.02E+002
 11
4.8812586E+001
 21
1.02E+002
  0
LINE
  8
2D_BEMASSUNG
  6
CONTINUOUS
 62
1
 10
4.7312586E+001
 20
8.8E+001
 11
4.7312586E+001
 21
9.5319114E+001
  0
LINE
  8
2D_BEMASSUNG
  6
CONTINUOUS
 62
1
 10
4.7312586E+001
 20
1.02E+002
 11
4.7312586E+001
 21
9.5319114E+001
  0
INSERT
  2
_AH13
  8
2D_BEMASSUNG
 62
1
 10
9.4625172E+001
 20
1.76E+002
 41
8.0
 42
8.0
 43
8.0
 50
2.7E+002
  0
INSERT
  2
_AH13
  8
2D_BEMASSUNG
 62
1
 10
9.4625172E+001
 20
2.04E+002
 41
8.0
 42
8.0
 43
8.0
 50
4.5E+002
  0
TEXT
  8
2D_BEMASSUNG
  6
CONTINUOUS
 62
1
 10
4.5811586E+001
 20
9.2519114E+001
 40
3.5
  1
28
 41
8.0E-001
 50
9.0E+001
  0
ENDBLK
  0
BLOCK
  2
*D1128
  3
*D
 10
0.0
 20
0.0
 70
65
  0
LINE
  8
2D_BEMASSUNG
  6
CONTINUOUS
 62
1
 10
6.3909218
 20
6.6499994E+001
 11
6.1206938E+001
 21
6.6499994E+001
  0
LINE
  8
2D_BEMASSUNG
  6
CONTINUOUS
 62
1
 10
-5.0801849E-001
 20
1.07E+002
 11
6.1206938E+001
 21
1.07E+002
  0
LINE
  8
2D_BEMASSUNG
  6
CONTINUOUS
 62
1
 10
5.9706938E+001
 20
6.6499994E+001
 11
5.9706938E+001
 21
8.8685517E+001
  0
LINE
  8
2D_BEMASSUNG
  6
CONTINUOUS
 62
1
 10
5.9706938E+001
 20
1.07E+002
 11
5.9706938E+001
 21
8.8685517E+001
  0
INSERT
  2
_AH13
  8
2D_BEMASSUNG
 62
1
 10
1.1941388E+002
 20
1.3299999E+002
 41
8.0
 42
8.0
 43
8.0
 50
2.7E+002
  0
INSERT
  2
_AH13
  8
2D_BEMASSUNG
 62
1
 10
1.1941388E+002
 20
2.14E+002
 41
8.0
 42
8.0
 43
8.0
 50
4.5E+002
  0
TEXT
  8
2D_BEMASSUNG
  6
CONTINUOUS
 62
1
 10
5.8205937E+001
 20
8.5885517E+001
 40
3.5
  1
81
 41
8.0E-001
 50
9.0E+001
  0
ENDBLK
  0
BLOCK
  2
*D1439
  3
*D
 10
0.0
 20
0.0
 70
65
  0
LINE
  8
2D_BEMASSUNG
  6
CONTINUOUS
 62
1
 10
0.0
 20
1.0E+002
 11
0.0
 21
1.5827326E+002
  0
LINE
  8
2D_BEMASSUNG
  6
CONTINUOUS
 62
1
 10
-7.5
 20
1.4441295E+002
 11
-7.5
 21
1.5827326E+002
  0
LINE
  8
2D_BEMASSUNG
  6
CONTINUOUS
 62
1
 10
8.0
 20
1.5677326E+002
 11
-7.5
 21
1.5677326E+002
  0
LINE
  8
2D_BEMASSUNG
  6
CONTINUOUS
 62
1
 10
-7.5
 20
1.5677326E+002
 11
-3.0374354E+001
 21
1.5677326E+002
  0
INSERT
  2
_AH13
  8
2D_BEMASSUNG
 62
1
 10
0.0
 20
3.1354652E+002
 41
8.0
 42
8.0
 43
8.0
 50
5.4E+002
  0
INSERT
  2
_AH13
  8
2D_BEMASSUNG
 62
1
 10
-1.5E+001
 20
3.1354652E+002
 41
8.0
 42
8.0
 43
8.0
 50
7.2E+002
  0
TEXT
  8
2D_BEMASSUNG
  6
CONTINUOUS
 62
1
 10
-2.8874354E+001
 20
1.5827426E+002
 40
3.5
  1
max.26
 41
8.0E-001
 50
3.6E+002
  0
ENDBLK
  0
BLOCK
  2
*D1440
  3
*D
 10
0.0
 20
0.0
 70
65
  0
LINE
  8
2D_BEMASSUNG
  6
CONTINUOUS
 62
1
 10
7.792989
 20
8.8E+001
 11
4.8698645E+001
 21
8.8E+001
  0
LINE
  8
2D_BEMASSUNG
  6
CONTINUOUS
 62
1
 10
6.3909218
 20
6.6499994E+001
 11
4.8698645E+001
 21
6.6499994E+001
  0
LINE
  8
2D_BEMASSUNG
  6
CONTINUOUS
 62
1
 10
4.7198645E+001
 20
8.8E+001
 11
4.7198645E+001
 21
7.7195973E+001
  0
LINE
  8
2D_BEMASSUNG
  6
CONTINUOUS
 62
1
 10
4.7198645E+001
 20
6.6499994E+001
 11
4.7198645E+001
 21
7.7195973E+001
  0
INSERT
  2
_AH13
  8
2D_BEMASSUNG
 62
1
 10
9.4397289E+001
 20
1.76E+002
 41
8.0
 42
8.0
 43
8.0
 50
4.5E+002
  0
INSERT
  2
_AH13
  8
2D_BEMASSUNG
 62
1
 10
9.4397289E+001
 20
1.3299999E+002
 41
8.0
 42
8.0
 43
8.0
 50
6.3E+002
  0
TEXT
  8
2D_BEMASSUNG
  6
CONTINUOUS
 62
1
 10
4.5697645E+001
 20
7.4395973E+001
 40
3.5
  1
43
 41
8.0E-001
 50
9.0E+001
  0
ENDBLK
  0
BLOCK
  2
*D1441
  3
*D
 10
0.0
 20
0.0
 70
65
  0
LINE
  8
2D_BEMASSUNG
  6
CONTINUOUS
 62
1
 10
7.792989
 20
8.8E+001
 11
4.8812586E+001
 21
8.8E+001
  0
LINE
  8
2D_BEMASSUNG
  6
CONTINUOUS
 62
1
 10
1.75E+001
 20
1.02E+002
 11
4.8812586E+001
 21
1.02E+002
  0
LINE
  8
2D_BEMASSUNG
  6
CONTINUOUS
 62
1
 10
4.7312586E+001
 20
8.8E+001
 11
4.7312586E+001
 21
9.5319114E+001
  0
LINE
  8
2D_BEMASSUNG
  6
CONTINUOUS
 62
1
 10
4.7312586E+001
 20
1.02E+002
 11
4.7312586E+001
 21
9.5319114E+001
  0
INSERT
  2
_AH13
  8
2D_BEMASSUNG
 62
1
 10
9.4625172E+001
 20
1.76E+002
 41
8.0
 42
8.0
 43
8.0
 50
2.7E+002
  0
INSERT
  2
_AH13
  8
2D_BEMASSUNG
 62
1
 10
9.4625172E+001
 20
2.04E+002
 41
8.0
 42
8.0
 43
8.0
 50
4.5E+002
  0
TEXT
  8
2D_BEMASSUNG
  6
CONTINUOUS
 62
1
 10
4.5811586E+001
 20
9.2519114E+001
 40
3.5
  1
28
 41
8.0E-001
 50
9.0E+001
  0
ENDBLK
  0
BLOCK
  2
*D1442
  3
*D
 10
0.0
 20
0.0
 70
65
  0
LINE
  8
2D_BEMASSUNG
  6
CONTINUOUS
 62
1
 10
6.3909218
 20
6.6499994E+001
 11
6.1206938E+001
 21
6.6499994E+001
  0
LINE
  8
2D_BEMASSUNG
  6
CONTINUOUS
 62
1
 10
-5.0801849E-001
 20
1.07E+002
 11
6.1206938E+001
 21
1.07E+002
  0
LINE
  8
2D_BEMASSUNG
  6
CONTINUOUS
 62
1
 10
5.9706938E+001
 20
6.6499994E+001
 11
5.9706938E+001
 21
8.8685517E+001
  0
LINE
  8
2D_BEMASSUNG
  6
CONTINUOUS
 62
1
 10
5.9706938E+001
 20
1.07E+002
 11
5.9706938E+001
 21
8.8685517E+001
  0
INSERT
  2
_AH13
  8
2D_BEMASSUNG
 62
1
 10
1.1941388E+002
 20
1.3299999E+002
 41
8.0
 42
8.0
 43
8.0
 50
2.7E+002
  0
INSERT
  2
_AH13
  8
2D_BEMASSUNG
 62
1
 10
1.1941388E+002
 20
2.14E+002
 41
8.0
 42
8.0
 43
8.0
 50
4.5E+002
  0
TEXT
  8
2D_BEMASSUNG
  6
CONTINUOUS
 62
1
 10
5.8205937E+001
 20
8.5885517E+001
 40
3.5
  1
81
 41
8.0E-001
 50
9.0E+001
  0
ENDBLK
  0
BLOCK
  2
*D1601
  3
*D
 10
0.0
 20
0.0
 70
65
  0
LINE
  8
2D_BEMASSUNG
  6
CONTINUOUS
 62
1
 10
0.0
 20
1.0E+002
 11
0.0
 21
1.5827326E+002
  0
LINE
  8
2D_BEMASSUNG
  6
CONTINUOUS
 62
1
 10
-7.5
 20
1.4441295E+002
 11
-7.5
 21
1.5827326E+002
  0
LINE
  8
2D_BEMASSUNG
  6
CONTINUOUS
 62
1
 10
8.0
 20
1.5677326E+002
 11
-7.5
 21
1.5677326E+002
  0
LINE
  8
2D_BEMASSUNG
  6
CONTINUOUS
 62
1
 10
-7.5
 20
1.5677326E+002
 11
-3.0374354E+001
 21
1.5677326E+002
  0
INSERT
  2
_AH13
  8
2D_BEMASSUNG
 62
1
 10
0.0
 20
3.1354652E+002
 41
8.0
 42
8.0
 43
8.0
 50
5.4E+002
  0
INSERT
  2
_AH13
  8
2D_BEMASSUNG
 62
1
 10
-1.5E+001
 20
3.1354652E+002
 41
8.0
 42
8.0
 43
8.0
 50
7.2E+002
  0
TEXT
  8
2D_BEMASSUNG
  6
CONTINUOUS
 62
1
 10
-2.8874354E+001
 20
1.5827426E+002
 40
3.5
  1
max.26
 41
8.0E-001
 50
3.6E+002
  0
ENDBLK
  0
BLOCK
  2
*D1602
  3
*D
 10
0.0
 20
0.0
 70
65
  0
LINE
  8
2D_BEMASSUNG
  6
CONTINUOUS
 62
1
 10
7.792989
 20
8.8E+001
 11
4.8698645E+001
 21
8.8E+001
  0
LINE
  8
2D_BEMASSUNG
  6
CONTINUOUS
 62
1
 10
6.3909218
 20
6.6499994E+001
 11
4.8698645E+001
 21
6.6499994E+001
  0
LINE
  8
2D_BEMASSUNG
  6
CONTINUOUS
 62
1
 10
4.7198645E+001
 20
8.8E+001
 11
4.7198645E+001
 21
7.7195973E+001
  0
LINE
  8
2D_BEMASSUNG
  6
CONTINUOUS
 62
1
 10
4.7198645E+001
 20
6.6499994E+001
 11
4.7198645E+001
 21
7.7195973E+001
  0
INSERT
  2
_AH13
  8
2D_BEMASSUNG
 62
1
 10
9.4397289E+001
 20
1.76E+002
 41
8.0
 42
8.0
 43
8.0
 50
4.5E+002
  0
INSERT
  2
_AH13
  8
2D_BEMASSUNG
 62
1
 10
9.4397289E+001
 20
1.3299999E+002
 41
8.0
 42
8.0
 43
8.0
 50
6.3E+002
  0
TEXT
  8
2D_BEMASSUNG
  6
CONTINUOUS
 62
1
 10
4.5697645E+001
 20
7.4395973E+001
 40
3.5
  1
43
 41
8.0E-001
 50
9.0E+001
  0
ENDBLK
  0
BLOCK
  2
*D1603
  3
*D
 10
0.0
 20
0.0
 70
65
  0
LINE
  8
2D_BEMASSUNG
  6
CONTINUOUS
 62
1
 10
7.792989
 20
8.8E+001
 11
4.8812586E+001
 21
8.8E+001
  0
LINE
  8
2D_BEMASSUNG
  6
CONTINUOUS
 62
1
 10
1.75E+001
 20
1.02E+002
 11
4.8812586E+001
 21
1.02E+002
  0
LINE
  8
2D_BEMASSUNG
  6
CONTINUOUS
 62
1
 10
4.7312586E+001
 20
8.8E+001
 11
4.7312586E+001
 21
9.5319114E+001
  0
LINE
  8
2D_BEMASSUNG
  6
CONTINUOUS
 62
1
 10
4.7312586E+001
 20
1.02E+002
 11
4.7312586E+001
 21
9.5319114E+001
  0
INSERT
  2
_AH13
  8
2D_BEMASSUNG
 62
1
 10
9.4625172E+001
 20
1.76E+002
 41
8.0
 42
8.0
 43
8.0
 50
2.7E+002
  0
INSERT
  2
_AH13
  8
2D_BEMASSUNG
 62
1
 10
9.4625172E+001
 20
2.04E+002
 41
8.0
 42
8.0
 43
8.0
 50
4.5E+002
  0
TEXT
  8
2D_BEMASSUNG
  6
CONTINUOUS
 62
1
 10
4.5811586E+001
 20
9.2519114E+001
 40
3.5
  1
28
 41
8.0E-001
 50
9.0E+001
  0
ENDBLK
  0
BLOCK
  2
*D1604
  3
*D
 10
0.0
 20
0.0
 70
65
  0
LINE
  8
2D_BEMASSUNG
  6
CONTINUOUS
 62
1
 10
6.3909218
 20
6.6499994E+001
 11
6.1206938E+001
 21
6.6499994E+001
  0
LINE
  8
2D_BEMASSUNG
  6
CONTINUOUS
 62
1
 10
-5.0801849E-001
 20
1.07E+002
 11
6.1206938E+001
 21
1.07E+002
  0
LINE
  8
2D_BEMASSUNG
  6
CONTINUOUS
 62
1
 10
5.9706938E+001
 20
6.6499994E+001
 11
5.9706938E+001
 21
8.8685517E+001
  0
LINE
  8
2D_BEMASSUNG
  6
CONTINUOUS
 62
1
 10
5.9706938E+001
 20
1.07E+002
 11
5.9706938E+001
 21
8.8685517E+001
  0
INSERT
  2
_AH13
  8
2D_BEMASSUNG
 62
1
 10
1.1941388E+002
 20
1.3299999E+002
 41
8.0
 42
8.0
 43
8.0
 50
2.7E+002
  0
INSERT
  2
_AH13
  8
2D_BEMASSUNG
 62
1
 10
1.1941388E+002
 20
2.14E+002
 41
8.0
 42
8.0
 43
8.0
 50
4.5E+002
  0
TEXT
  8
2D_BEMASSUNG
  6
CONTINUOUS
 62
1
 10
5.8205937E+001
 20
8.5885517E+001
 40
3.5
  1
81
 41
8.0E-001
 50
9.0E+001
  0
ENDBLK
  0
BLOCK
  2
*D1728
  3
*D
 10
0.0
 20
0.0
 70
65
  0
LINE
  8
2D_BEMASSUNG
  6
CONTINUOUS
 62
1
 10
8.5931769E+001
 20
2.218051E+002
 11
8.5931769E+001
 21
1.921569E+002
  0
LINE
  8
2D_BEMASSUNG
  6
CONTINUOUS
 62
1
 10
8.7431769E+001
 20
2.198051E+002
 11
8.7431769E+001
 21
1.921569E+002
  0
LINE
  8
2D_BEMASSUNG
  6
CONTINUOUS
 62
1
 10
8.5931769E+001
 20
1.936569E+002
 11
6.8589845E+001
 21
1.936569E+002
  0
LINE
  8
2D_BEMASSUNG
  6
CONTINUOUS
 62
1
 10
9.5431769E+001
 20
1.936569E+002
 11
8.5931769E+001
 21
1.936569E+002
  0
INSERT
  2
_AH13
  8
2D_BEMASSUNG
 62
1
 10
8.5931769E+001
 20
1.936569E+002
 41
4.0
 42
4.0
 43
4.0
 50
3.6E+002
  0
INSERT
  2
_AH13
  8
2D_BEMASSUNG
 62
1
 10
8.7431769E+001
 20
1.936569E+002
 41
4.0
 42
4.0
 43
4.0
 50
5.4E+002
  0
TEXT
  8
2D_BEMASSUNG
  6
CONTINUOUS
 62
1
 10
7.0089845E+001
 20
1.951579E+002
 40
3.5
  1
max.
 41
8.0E-001
  0
INSERT
  2
_AH13
  8
2D_BEMASSUNG
 62
1
 10
8.5931769E+001
 20
1.936569E+002
 41
4.0
 42
4.0
 43
4.0
 50
3.6E+002
  0
INSERT
  2
_AH13
  8
2D_BEMASSUNG
 62
1
 10
8.7431769E+001
 20
1.936569E+002
 41
4.0
 42
4.0
 43
4.0
 50
5.4E+002
  0
TEXT
  8
2D_BEMASSUNG
  6
CONTINUOUS
 62
1
 10
8.1289845E+001
 20
1.951579E+002
 40
3.5
  1
3
 41
8.0E-001
  0
ENDBLK
  0
BLOCK
  2
*D1729
  3
*D
 10
0.0
 20
0.0
 70
65
  0
LINE
  8
2D_BEMASSUNG
  6
CONTINUOUS
 62
1
 10
8.7431769E+001
 20
2.198051E+002
 11
1.3996039E+002
 21
2.198051E+002
  0
LINE
  8
2D_BEMASSUNG
  6
CONTINUOUS
 62
1
 10
9.2322692E+001
 20
2.338051E+002
 11
1.3996039E+002
 21
2.338051E+002
  0
LINE
  8
2D_BEMASSUNG
  6
CONTINUOUS
 62
1
 10
1.3846039E+002
 20
2.198051E+002
 11
1.3846039E+002
 21
2.2751914E+002
  0
LINE
  8
2D_BEMASSUNG
  6
CONTINUOUS
 62
1
 10
1.3846039E+002
 20
2.338051E+002
 11
1.3846039E+002
 21
2.2751914E+002
  0
INSERT
  2
_AH13
  8
2D_BEMASSUNG
 62
1
 10
1.3846039E+002
 20
2.198051E+002
 41
4.0
 42
4.0
 43
4.0
 50
2.7E+002
  0
INSERT
  2
_AH13
  8
2D_BEMASSUNG
 62
1
 10
1.3846039E+002
 20
2.338051E+002
 41
4.0
 42
4.0
 43
4.0
 50
4.5E+002
  0
TEXT
  8
2D_BEMASSUNG
  6
CONTINUOUS
 62
1
 10
1.3695939E+002
 20
2.2471914E+002
 40
3.5
  1
28
 41
8.0E-001
 50
9.0E+001
  0
ENDBLK
  0
BLOCK
  2
*D1730
  3
*D
 10
0.0
 20
0.0
 70
65
  0
LINE
  8
2D_BEMASSUNG
  6
CONTINUOUS
 62
1
 10
9.2322692E+001
 20
2.338051E+002
 11
1.3996039E+002
 21
2.338051E+002
  0
LINE
  8
2D_BEMASSUNG
  6
CONTINUOUS
 62
1
 10
9.2322691E+001
 20
2.5530511E+002
 11
1.3996039E+002
 21
2.5530511E+002
  0
LINE
  8
2D_BEMASSUNG
  6
CONTINUOUS
 62
1
 10
1.3846039E+002
 20
2.338051E+002
 11
1.3846039E+002
 21
2.4566304E+002
  0
LINE
  8
2D_BEMASSUNG
  6
CONTINUOUS
 62
1
 10
1.3846039E+002
 20
2.5530511E+002
 11
1.3846039E+002
 21
2.4566304E+002
  0
INSERT
  2
_AH13
  8
2D_BEMASSUNG
 62
1
 10
1.3846039E+002
 20
2.338051E+002
 41
4.0
 42
4.0
 43
4.0
 50
2.7E+002
  0
INSERT
  2
_AH13
  8
2D_BEMASSUNG
 62
1
 10
1.3846039E+002
 20
2.5530511E+002
 41
4.0
 42
4.0
 43
4.0
 50
4.5E+002
  0
TEXT
  8
2D_BEMASSUNG
  6
CONTINUOUS
 62
1
 10
1.3695939E+002
 20
2.4286304E+002
 40
3.5
  1
43
 41
8.0E-001
 50
9.0E+001
  0
ENDBLK
  0
BLOCK
  2
*D1732
  3
*D
 10
0.0
 20
0.0
 70
65
  0
LINE
  8
2D_BEMASSUNG
  6
CONTINUOUS
 62
1
 10
9.2322691E+001
 20
2.5530511E+002
 11
1.5462464E+002
 21
2.5530511E+002
  0
LINE
  8
2D_BEMASSUNG
  6
CONTINUOUS
 62
1
 10
9.4423751E+001
 20
2.148051E+002
 11
1.5462464E+002
 21
2.148051E+002
  0
LINE
  8
2D_BEMASSUNG
  6
CONTINUOUS
 62
1
 10
1.5312464E+002
 20
2.5530511E+002
 11
1.5312464E+002
 21
2.3522408E+002
  0
LINE
  8
2D_BEMASSUNG
  6
CONTINUOUS
 62
1
 10
1.5312464E+002
 20
2.148051E+002
 11
1.5312464E+002
 21
2.3522408E+002
  0
INSERT
  2
_AH13
  8
2D_BEMASSUNG
 62
1
 10
1.5312464E+002
 20
2.5530511E+002
 41
4.0
 42
4.0
 43
4.0
 50
4.5E+002
  0
INSERT
  2
_AH13
  8
2D_BEMASSUNG
 62
1
 10
1.5312464E+002
 20
2.148051E+002
 41
4.0
 42
4.0
 43
4.0
 50
6.3E+002
  0
TEXT
  8
2D_BEMASSUNG
  6
CONTINUOUS
 62
1
 10
1.5162364E+002
 20
2.3242408E+002
 40
3.5
  1
81
 41
8.0E-001
 50
9.0E+001
  0
ENDBLK
  0
BLOCK
  2
*D1944
  3
*D
 10
0.0
 20
0.0
 70
65
  0
LINE
  8
2D_BEMASSUNG
  6
CONTINUOUS
 62
1
 10
-2.5E+001
 20
-4.45E+001
 11
-2.5E+001
 21
1.3773258E+001
  0
LINE
  8
2D_BEMASSUNG
  6
CONTINUOUS
 62
1
 10
-3.25E+001
 20
-8.7049E-002
 11
-3.25E+001
 21
1.3773258E+001
  0
LINE
  8
2D_BEMASSUNG
  6
CONTINUOUS
 62
1
 10
-1.7E+001
 20
1.2273258E+001
 11
-3.25E+001
 21
1.2273258E+001
  0
LINE
  8
2D_BEMASSUNG
  6
CONTINUOUS
 62
1
 10
-3.25E+001
 20
1.2273258E+001
 11
-5.5374354E+001
 21
1.2273258E+001
  0
INSERT
  2
_AH13
  8
2D_BEMASSUNG
 62
1
 10
-5.0E+001
 20
2.4546515E+001
 41
8.0
 42
8.0
 43
8.0
 50
5.4E+002
  0
INSERT
  2
_AH13
  8
2D_BEMASSUNG
 62
1
 10
-6.5E+001
 20
2.4546515E+001
 41
8.0
 42
8.0
 43
8.0
 50
7.2E+002
  0
TEXT
  8
2D_BEMASSUNG
  6
CONTINUOUS
 62
1
 10
-5.3874354E+001
 20
1.3774257E+001
 40
3.5
  1
max.26
 41
8.0E-001
 50
3.6E+002
  0
ENDBLK
  0
BLOCK
  2
*D1945
  3
*D
 10
0.0
 20
0.0
 70
65
  0
LINE
  8
2D_BEMASSUNG
  6
CONTINUOUS
 62
1
 10
-1.7207011E+001
 20
-5.65E+001
 11
2.3698645E+001
 21
-5.65E+001
  0
LINE
  8
2D_BEMASSUNG
  6
CONTINUOUS
 62
1
 10
-1.8609078E+001
 20
-7.8000006E+001
 11
2.3698645E+001
 21
-7.8000006E+001
  0
LINE
  8
2D_BEMASSUNG
  6
CONTINUOUS
 62
1
 10
2.2198645E+001
 20
-5.65E+001
 11
2.2198645E+001
 21
-6.7304027E+001
  0
LINE
  8
2D_BEMASSUNG
  6
CONTINUOUS
 62
1
 10
2.2198645E+001
 20
-7.8000006E+001
 11
2.2198645E+001
 21
-6.7304027E+001
  0
INSERT
  2
_AH13
  8
2D_BEMASSUNG
 62
1
 10
4.4397289E+001
 20
-1.13E+002
 41
8.0
 42
8.0
 43
8.0
 50
4.5E+002
  0
INSERT
  2
_AH13
  8
2D_BEMASSUNG
 62
1
 10
4.4397289E+001
 20
-1.5600001E+002
 41
8.0
 42
8.0
 43
8.0
 50
6.3E+002
  0
TEXT
  8
2D_BEMASSUNG
  6
CONTINUOUS
 62
1
 10
2.0697644E+001
 20
-7.0104027E+001
 40
3.5
  1
43
 41
8.0E-001
 50
9.0E+001
  0
ENDBLK
  0
BLOCK
  2
*D1946
  3
*D
 10
0.0
 20
0.0
 70
65
  0
LINE
  8
2D_BEMASSUNG
  6
CONTINUOUS
 62
1
 10
-1.7207011E+001
 20
-5.65E+001
 11
2.3812586E+001
 21
-5.65E+001
  0
LINE
  8
2D_BEMASSUNG
  6
CONTINUOUS
 62
1
 10
-7.5
 20
-4.25E+001
 11
2.3812586E+001
 21
-4.25E+001
  0
LINE
  8
2D_BEMASSUNG
  6
CONTINUOUS
 62
1
 10
2.2312586E+001
 20
-5.65E+001
 11
2.2312586E+001
 21
-4.9180887E+001
  0
LINE
  8
2D_BEMASSUNG
  6
CONTINUOUS
 62
1
 10
2.2312586E+001
 20
-4.25E+001
 11
2.2312586E+001
 21
-4.9180887E+001
  0
INSERT
  2
_AH13
  8
2D_BEMASSUNG
 62
1
 10
4.4625172E+001
 20
-1.13E+002
 41
8.0
 42
8.0
 43
8.0
 50
2.7E+002
  0
INSERT
  2
_AH13
  8
2D_BEMASSUNG
 62
1
 10
4.4625172E+001
 20
-8.5E+001
 41
8.0
 42
8.0
 43
8.0
 50
4.5E+002
  0
TEXT
  8
2D_BEMASSUNG
  6
CONTINUOUS
 62
1
 10
2.0811586E+001
 20
-5.1980886E+001
 40
3.5
  1
28
 41
8.0E-001
 50
9.0E+001
  0
ENDBLK
  0
BLOCK
  2
*D1947
  3
*D
 10
0.0
 20
0.0
 70
65
  0
LINE
  8
2D_BEMASSUNG
  6
CONTINUOUS
 62
1
 10
-1.8609078E+001
 20
-7.8000006E+001
 11
3.6206938E+001
 21
-7.8000006E+001
  0
LINE
  8
2D_BEMASSUNG
  6
CONTINUOUS
 62
1
 10
-2.5508018E+001
 20
-3.75E+001
 11
3.6206938E+001
 21
-3.75E+001
  0
LINE
  8
2D_BEMASSUNG
  6
CONTINUOUS
 62
1
 10
3.4706938E+001
 20
-7.8000006E+001
 11
3.4706938E+001
 21
-5.5814483E+001
  0
LINE
  8
2D_BEMASSUNG
  6
CONTINUOUS
 62
1
 10
3.4706938E+001
 20
-3.75E+001
 11
3.4706938E+001
 21
-5.5814483E+001
  0
INSERT
  2
_AH13
  8
2D_BEMASSUNG
 62
1
 10
6.9413875E+001
 20
-1.5600001E+002
 41
8.0
 42
8.0
 43
8.0
 50
2.7E+002
  0
INSERT
  2
_AH13
  8
2D_BEMASSUNG
 62
1
 10
6.9413875E+001
 20
-7.5E+001
 41
8.0
 42
8.0
 43
8.0
 50
4.5E+002
  0
TEXT
  8
2D_BEMASSUNG
  6
CONTINUOUS
 62
1
 10
3.3205937E+001
 20
-5.8614483E+001
 40
3.5
  1
81
 41
8.0E-001
 50
9.0E+001
  0
ENDBLK
  0
BLOCK
  2
*D2109
  3
*D
 10
0.0
 20
0.0
 70
65
  0
LINE
  8
2D_BEMASSUNG
  6
CONTINUOUS
 62
1
 10
-2.5E+001
 20
-4.45E+001
 11
-2.5E+001
 21
1.3773258E+001
  0
LINE
  8
2D_BEMASSUNG
  6
CONTINUOUS
 62
1
 10
-3.25E+001
 20
-8.7049E-002
 11
-3.25E+001
 21
1.3773258E+001
  0
LINE
  8
2D_BEMASSUNG
  6
CONTINUOUS
 62
1
 10
-1.7E+001
 20
1.2273258E+001
 11
-3.25E+001
 21
1.2273258E+001
  0
LINE
  8
2D_BEMASSUNG
  6
CONTINUOUS
 62
1
 10
-3.25E+001
 20
1.2273258E+001
 11
-5.5374354E+001
 21
1.2273258E+001
  0
INSERT
  2
_AH13
  8
2D_BEMASSUNG
 62
1
 10
-5.0E+001
 20
2.4546515E+001
 41
8.0
 42
8.0
 43
8.0
 50
5.4E+002
  0
INSERT
  2
_AH13
  8
2D_BEMASSUNG
 62
1
 10
-6.5E+001
 20
2.4546515E+001
 41
8.0
 42
8.0
 43
8.0
 50
7.2E+002
  0
TEXT
  8
2D_BEMASSUNG
  6
CONTINUOUS
 62
1
 10
-5.3874354E+001
 20
1.3774257E+001
 40
3.5
  1
max.26
 41
8.0E-001
 50
3.6E+002
  0
ENDBLK
  0
BLOCK
  2
*D2110
  3
*D
 10
0.0
 20
0.0
 70
65
  0
LINE
  8
2D_BEMASSUNG
  6
CONTINUOUS
 62
1
 10
-1.7207011E+001
 20
-5.65E+001
 11
2.3698645E+001
 21
-5.65E+001
  0
LINE
  8
2D_BEMASSUNG
  6
CONTINUOUS
 62
1
 10
-1.8609078E+001
 20
-7.8000006E+001
 11
2.3698645E+001
 21
-7.8000006E+001
  0
LINE
  8
2D_BEMASSUNG
  6
CONTINUOUS
 62
1
 10
2.2198645E+001
 20
-5.65E+001
 11
2.2198645E+001
 21
-6.7304027E+001
  0
LINE
  8
2D_BEMASSUNG
  6
CONTINUOUS
 62
1
 10
2.2198645E+001
 20
-7.8000006E+001
 11
2.2198645E+001
 21
-6.7304027E+001
  0
INSERT
  2
_AH13
  8
2D_BEMASSUNG
 62
1
 10
4.4397289E+001
 20
-1.13E+002
 41
8.0
 42
8.0
 43
8.0
 50
4.5E+002
  0
INSERT
  2
_AH13
  8
2D_BEMASSUNG
 62
1
 10
4.4397289E+001
 20
-1.5600001E+002
 41
8.0
 42
8.0
 43
8.0
 50
6.3E+002
  0
TEXT
  8
2D_BEMASSUNG
  6
CONTINUOUS
 62
1
 10
2.0697644E+001
 20
-7.0104027E+001
 40
3.5
  1
43
 41
8.0E-001
 50
9.0E+001
  0
ENDBLK
  0
BLOCK
  2
*D2111
  3
*D
 10
0.0
 20
0.0
 70
65
  0
LINE
  8
2D_BEMASSUNG
  6
CONTINUOUS
 62
1
 10
-1.7207011E+001
 20
-5.65E+001
 11
2.3812586E+001
 21
-5.65E+001
  0
LINE
  8
2D_BEMASSUNG
  6
CONTINUOUS
 62
1
 10
-7.5
 20
-4.25E+001
 11
2.3812586E+001
 21
-4.25E+001
  0
LINE
  8
2D_BEMASSUNG
  6
CONTINUOUS
 62
1
 10
2.2312586E+001
 20
-5.65E+001
 11
2.2312586E+001
 21
-4.9180887E+001
  0
LINE
  8
2D_BEMASSUNG
  6
CONTINUOUS
 62
1
 10
2.2312586E+001
 20
-4.25E+001
 11
2.2312586E+001
 21
-4.9180887E+001
  0
INSERT
  2
_AH13
  8
2D_BEMASSUNG
 62
1
 10
4.4625172E+001
 20
-1.13E+002
 41
8.0
 42
8.0
 43
8.0
 50
2.7E+002
  0
INSERT
  2
_AH13
  8
2D_BEMASSUNG
 62
1
 10
4.4625172E+001
 20
-8.5E+001
 41
8.0
 42
8.0
 43
8.0
 50
4.5E+002
  0
TEXT
  8
2D_BEMASSUNG
  6
CONTINUOUS
 62
1
 10
2.0811586E+001
 20
-5.1980886E+001
 40
3.5
  1
28
 41
8.0E-001
 50
9.0E+001
  0
ENDBLK
  0
BLOCK
  2
*D2112
  3
*D
 10
0.0
 20
0.0
 70
65
  0
LINE
  8
2D_BEMASSUNG
  6
CONTINUOUS
 62
1
 10
-1.8609078E+001
 20
-7.8000006E+001
 11
3.6206938E+001
 21
-7.8000006E+001
  0
LINE
  8
2D_BEMASSUNG
  6
CONTINUOUS
 62
1
 10
-2.5508018E+001
 20
-3.75E+001
 11
3.6206938E+001
 21
-3.75E+001
  0
LINE
  8
2D_BEMASSUNG
  6
CONTINUOUS
 62
1
 10
3.4706938E+001
 20
-7.8000006E+001
 11
3.4706938E+001
 21
-5.5814483E+001
  0
LINE
  8
2D_BEMASSUNG
  6
CONTINUOUS
 62
1
 10
3.4706938E+001
 20
-3.75E+001
 11
3.4706938E+001
 21
-5.5814483E+001
  0
INSERT
  2
_AH13
  8
2D_BEMASSUNG
 62
1
 10
6.9413875E+001
 20
-1.5600001E+002
 41
8.0
 42
8.0
 43
8.0
 50
2.7E+002
  0
INSERT
  2
_AH13
  8
2D_BEMASSUNG
 62
1
 10
6.9413875E+001
 20
-7.5E+001
 41
8.0
 42
8.0
 43
8.0
 50
4.5E+002
  0
TEXT
  8
2D_BEMASSUNG
  6
CONTINUOUS
 62
1
 10
3.3205937E+001
 20
-5.8614483E+001
 40
3.5
  1
81
 41
8.0E-001
 50
9.0E+001
  0
ENDBLK
  0
ENDSEC
  0
SECTION
  2
ENTITIES
  0
INSERT
  2
TTZUNEW00
  8
2D_SYMBOLE
 10
8.7431769E+001
 20
2.148051E+002
 41
5.0E-001
 43
5.0E-001
 42
5.0E-001
  0
TEXT
  8
2D_TEXT
  6
CONTINUOUS
 62
40
 10
3.9485742E+002
 20
3.3244141E+001
 40
5.0
  1
p430504.she
 41
6.5454545E-001
 72
1
 11
3.7685742E+002
 21
3.0744141E+001
 73
2
  0
LINE
  8
98
  6
CONTINUOUS
 62
1
 10
0.0
 20
0.0
 11
4.2E+002
 21
0.0
  0
LINE
  8
98
  6
CONTINUOUS
 62
1
 10
4.2E+002
 20
0.0
 11
4.2E+002
 21
2.97E+002
  0
LINE
  8
98
  6
CONTINUOUS
 62
1
 10
4.2E+002
 20
2.97E+002
 11
0.0
 21
2.97E+002
  0
LINE
  8
98
  6
CONTINUOUS
 62
1
 10
0.0
 20
2.97E+002
 11
0.0
 21
0.0
  0
LINE
  8
2D_SICHTBARE_KANTEN
  6
CONTINUOUS
 62
40
 10
5.0
 20
5.0
 11
4.15E+002
 21
5.0
  0
LINE
  8
2D_SICHTBARE_KANTEN
  6
CONTINUOUS
 62
40
 10
4.15E+002
 20
5.0
 11
4.15E+002
 21
2.92E+002
  0
LINE
  8
2D_SICHTBARE_KANTEN
  6
CONTINUOUS
 62
40
 10
4.15E+002
 20
2.92E+002
 11
5.0
 21
2.92E+002
  0
LINE
  8
2D_SICHTBARE_KANTEN
  6
CONTINUOUS
 62
40
 10
5.0
 20
2.92E+002
 11
5.0
 21
5.0
  0
TEXT
  8
2D_TEXT
  6
CONTINUOUS
 62
150
 10
3.5728892E+002
 20
2.2357351E+001
 40
3.5
  1
Maßstab:
 41
6.4687502E-001
 72
1
 11
3.4823267E+002
 21
2.0607351E+001
 73
2
  0
LINE
  8
MED-1
  6
CONTINUOUS
 62
3
 10
2.87323E+002
 20
3.58984E+001
 11
2.87323E+002
 21
5.3705E+001
  0
LINE
  8
MED-1
  6
CONTINUOUS
 62
3
 10
2.87323E+002
 20
5.3705E+001
 11
4.0068E+002
 21
5.3705E+001
  0
LINE
  8
MED-1
  6
CONTINUOUS
 62
3
 10
4.0068E+002
 20
5.3705E+001
 11
4.0068E+002
 21
3.58984E+001
  0
TEXT
  8
2D_TEXT
  6
CONTINUOUS
 62
150
 10
3.1034373E+002
 20
4.1512573E+001
 40
3.5
  1
Benennung
 41
6.5000002E-001
 72
1
 11
3.0010623E+002
 21
3.9762573E+001
 73
2
  0
TEXT
  8
2D_TEXT
  6
CONTINUOUS
 62
40
 10
3.2880319E+002
 20
3.848587E+001
 40
5.0
  1
Kopfmontage Bandseite
 41
6.6176471E-001
  0
TEXT
  8
2D_TEXT
  6
CONTINUOUS
 62
150
 10
3.5435168E+002
 20
3.1956501E+001
 40
3.5
  1
Zng.Nr.
 41
6.4285716E-001
 72
1
 11
3.4647668E+002
 21
3.0206501E+001
 73
2
  0
TEXT
  8
2D_TEXT
  6
CONTINUOUS
 62
40
 10
3.3325247E+002
 20
3.333313E+001
 40
5.0
  1
M.Schell
 41
6.46875E-001
 72
1
 11
3.2031497E+002
 21
3.083313E+001
 73
2
  0
TEXT
  8
2D_TEXT
  6
CONTINUOUS
 62
150
 10
2.9879783E+002
 20
3.2113159E+001
 40
3.5
  1
gez.
 41
6.1875002E-001
 72
1
 11
2.9446658E+002
 21
3.0363159E+001
 73
2
  0
TEXT
  8
2D_TEXT
  6
CONTINUOUS
 62
150
 10
3.0029241E+002
 20
2.2713747E+001
 40
3.5
  1
Datum
 41
6.3000002E-001
 72
1
 11
2.9477991E+002
 21
2.0963747E+001
 73
2
  0
TEXT
  8
2D_TEXT
  6
CONTINUOUS
 62
40
 10
3.6868488E+002
 20
2.3414137E+001
 40
5.0
  1
1:2
 41
6.0E-001
 72
1
 11
3.6418488E+002
 21
2.0914137E+001
 73
2
  0
LINE
  8
MED-1
  6
CONTINUOUS
 62
3
 10
3.7698E+002
 20
2.58984E+001
 11
3.7698E+002
 21
1.58984E+001
  0
TEXT
  8
2D_TEXT
  6
CONTINUOUS
 62
40
 10
3.9289777E+002
 20
2.3619749E+001
 40
5.0
  1
A 3
 41
6.0E-001
 72
1
 11
3.8839777E+002
 21
2.1119749E+001
 73
2
  0
LINE
  8
MED-1
  6
CONTINUOUS
 62
3
 10
2.87323E+002
 20
3.58984E+001
 11
4.0068E+002
 21
3.58984E+001
  0
LINE
  8
MED-1
  6
CONTINUOUS
 62
3
 10
4.0068E+002
 20
3.58984E+001
 11
4.0068E+002
 21
1.58984E+001
  0
LINE
  8
MED-1
  6
CONTINUOUS
 62
3
 10
4.0068E+002
 20
1.58984E+001
 11
2.87323E+002
 21
1.58984E+001
  0
LINE
  8
MED-1
  6
CONTINUOUS
 62
3
 10
2.87323E+002
 20
1.58984E+001
 11
2.87323E+002
 21
3.58984E+001
  0
LINE
  8
MED-1
  6
CONTINUOUS
 62
3
 10
3.37133E+002
 20
3.58984E+001
 11
3.37133E+002
 21
1.58984E+001
  0
LINE
  8
MED-1
  6
CONTINUOUS
 62
3
 10
2.87323E+002
 20
2.58984E+001
 11
4.0068E+002
 21
2.58984E+001
  0
LINE
  8
2D_BEMASSUNG
  6
CENTERLINE
 62
150
 10
8.5931769E+001
 20
2.485551E+002
 11
8.5931769E+001
 21
2.460551E+002
  0
LINE
  8
2D_BEMASSUNG
  6
CENTERLINE
 62
150
 10
8.5931768E+001
 20
2.5655511E+002
 11
8.5931768E+001
 21
2.5405511E+002
  0
LINE
  8
2D_SICHTBARE_KANTEN
  6
CONTINUOUS
 62
40
 10
7.7431768E+001
 20
2.2405513E+002
 11
7.7431768E+001
 21
2.281801E+002
  0
LINE
  8
2D_SICHTBARE_KANTEN
  6
CONTINUOUS
 62
40
 10
6.6431767E+001
 20
2.281801E+002
 11
6.6431767E+001
 21
2.2155512E+002
  0
LINE
  8
2D_SICHTBARE_KANTEN
  6
CONTINUOUS
 62
40
 10
6.6431767E+001
 20
2.2155512E+002
 11
7.5694248E+001
 21
2.2155512E+002
  0
LINE
  8
2D_SICHTBARE_KANTEN
  6
CONTINUOUS
 62
40
 10
6.6431767E+001
 20
2.2405513E+002
 11
7.565466E+001
 21
2.2405513E+002
  0
LINE
  8
2D_SICHTBARE_KANTEN
  6
CONTINUOUS
 62
40
 10
7.7431768E+001
 20
2.2405512E+002
 11
7.7431768E+001
 21
2.2818011E+002
  0
LINE
  8
2D_VERDECKTE_KANTEN
  6
HIDDEN
 62
1
 10
8.5931768E+001
 20
2.4318012E+002
 11
8.5931768E+001
 21
2.2930512E+002
  0
ARC
  8
2D_VERDECKTE_KANTEN
  6
HIDDEN
 62
1
 10
8.5681777E+001
 20
2.2930511E+002
 40
2.499908E-001
 50
2.6999789E+002
 51
3.6000211E+002
  0
LINE
  8
2D_VERDECKTE_KANTEN
  6
HIDDEN
 62
1
 10
8.5681768E+001
 20
2.2905512E+002
 11
8.4885321E+001
 21
2.2905512E+002
  0
ARC
  8
2D_VERDECKTE_KANTEN
  6
HIDDEN
 62
1
 10
8.488534E+001
 20
2.2880511E+002
 40
2.5001166E-001
 50
9.0004517E+001
 51
1.3499759E+002
  0
LINE
  8
2D_VERDECKTE_KANTEN
  6
HIDDEN
 62
1
 10
8.4708563E+001
 20
2.289819E+002
 11
8.4354986E+001
 21
2.2862835E+002
  0
ARC
  8
2D_VERDECKTE_KANTEN
  6
HIDDEN
 62
1
 10
8.4178234E+001
 20
2.2880505E+002
 40
2.499317E-001
 50
2.6999867E+002
 51
3.1500766E+002
  0
LINE
  8
2D_VERDECKTE_KANTEN
  6
HIDDEN
 62
1
 10
8.4178228E+001
 20
2.2855512E+002
 11
8.4085333E+001
 21
2.2855512E+002
  0
ARC
  8
2D_VERDECKTE_KANTEN
  6
HIDDEN
 62
1
 10
8.4085295E+001
 20
2.2880505E+002
 40
2.4992928E-001
 50
2.2499211E+002
 51
2.7000855E+002
  0
LINE
  8
2D_VERDECKTE_KANTEN
  6
HIDDEN
 62
1
 10
8.3908544E+001
 20
2.2862835E+002
 11
8.350501E+001
 21
2.2903189E+002
  0
ARC
  8
2D_VERDECKTE_KANTEN
  6
HIDDEN
 62
1
 10
8.3681693E+001
 20
2.2920865E+002
 40
2.4992506E-001
 50
1.7999629E+002
 51
2.2501324E+002
  0
LINE
  8
2D_VERDECKTE_KANTEN
  6
HIDDEN
 62
1
 10
8.3431768E+001
 20
2.2920867E+002
 11
8.3431768E+001
 21
2.5715157E+002
  0
ARC
  8
2D_VERDECKTE_KANTEN
  6
HIDDEN
 62
1
 10
8.3681748E+001
 20
2.5715157E+002
 40
2.4997971E-001
 50
1.3499195E+002
 51
1.7999852E+002
  0
LINE
  8
2D_VERDECKTE_KANTEN
  6
HIDDEN
 62
1
 10
8.350501E+001
 20
2.5732835E+002
 11
8.3908544E+001
 21
2.5773189E+002
  0
ARC
  8
2D_VERDECKTE_KANTEN
  6
HIDDEN
 62
1
 10
8.4085333E+001
 20
2.575551E+002
 40
2.5002034E-001
 50
9.0000095E+001
 51
1.3499924E+002
  0
LINE
  8
2D_VERDECKTE_KANTEN
  6
HIDDEN
 62
1
 10
8.4085333E+001
 20
2.5780512E+002
 11
8.4178228E+001
 21
2.5780512E+002
  0
ARC
  8
2D_VERDECKTE_KANTEN
  6
HIDDEN
 62
1
 10
8.417822E+001
 20
2.5755516E+002
 40
2.4996498E-001
 50
4.49955E+001
 51
8.9998167E+001
  0
LINE
  8
2D_VERDECKTE_KANTEN
  6
HIDDEN
 62
1
 10
8.4354986E+001
 20
2.5773189E+002
 11
8.4708563E+001
 21
2.5737834E+002
  0
ARC
  8
2D_VERDECKTE_KANTEN
  6
HIDDEN
 62
1
 10
8.4885335E+001
 20
2.5755512E+002
 40
2.4999965E-001
 50
2.2500127E+002
 51
2.6999662E+002
  0
LINE
  8
2D_VERDECKTE_KANTEN
  6
HIDDEN
 62
1
 10
8.4885321E+001
 20
2.5730512E+002
 11
8.5681768E+001
 21
2.5730512E+002
  0
ARC
  8
2D_VERDECKTE_KANTEN
  6
HIDDEN
 62
1
 10
8.5681769E+001
 20
2.5705512E+002
 40
2.4999953E-001
 50
3.5999989E+002
 51
4.5000011E+002
  0
LINE
  8
2D_VERDECKTE_KANTEN
  6
HIDDEN
 62
1
 10
8.5931768E+001
 20
2.5705512E+002
 11
8.5931768E+001
 21
2.4318012E+002
  0
LINE
  8
2D_MITTELLINIEN
  6
CENTERLINE
 62
1
 10
8.2897862E+001
 20
2.338051E+002
 11
8.7407172E+001
 21
2.338051E+002
  0
LINE
  8
2D_MITTELLINIEN
  6
CENTERLINE
 62
1
 10
8.2897862E+001
 20
2.418051E+002
 11
8.7312903E+001
 21
2.418051E+002
  0
LINE
  8
2D_MITTELLINIEN
  6
CENTERLINE
 62
1
 10
8.2897862E+001
 20
2.473051E+002
 11
8.7098425E+001
 21
2.473051E+002
  0
LINE
  8
2D_MITTELLINIEN
  6
CENTERLINE
 62
1
 10
8.289783E+001
 20
2.553051E+002
 11
8.7292121E+001
 21
2.5530511E+002
  0
LINE
  8
2D_VERDECKTE_KANTEN
  6
HIDDEN
 62
1
 10
8.3431769E+001
 20
2.5255511E+002
 11
8.4931769E+001
 21
2.5405511E+002
  0
LINE
  8
2D_VERDECKTE_KANTEN
  6
HIDDEN
 62
1
 10
8.4931769E+001
 20
2.5405511E+002
 11
8.4931769E+001
 21
2.5655511E+002
  0
LINE
  8
2D_VERDECKTE_KANTEN
  6
HIDDEN
 62
1
 10
8.4931769E+001
 20
2.5655511E+002
 11
8.3831793E+001
 21
2.5765511E+002
  0
LINE
  8
2D_VERDECKTE_KANTEN
  6
HIDDEN
 62
1
 10
8.3431769E+001
 20
2.445551E+002
 11
8.4931769E+001
 21
2.460551E+002
  0
LINE
  8
2D_VERDECKTE_KANTEN
  6
HIDDEN
 62
1
 10
8.4931769E+001
 20
2.460551E+002
 11
8.4931769E+001
 21
2.485551E+002
  0
LINE
  8
2D_VERDECKTE_KANTEN
  6
HIDDEN
 62
1
 10
8.4931769E+001
 20
2.485551E+002
 11
8.3431769E+001
 21
2.500551E+002
  0
LINE
  8
2D_VERDECKTE_KANTEN
  6
HIDDEN
 62
1
 10
8.4931769E+001
 20
2.485551E+002
 11
8.5931769E+001
 21
2.485551E+002
  0
LINE
  8
2D_VERDECKTE_KANTEN
  6
HIDDEN
 62
1
 10
8.5931769E+001
 20
2.460551E+002
 11
8.4931769E+001
 21
2.460551E+002
  0
LINE
  8
2D_VERDECKTE_KANTEN
  6
HIDDEN
 62
1
 10
8.4931769E+001
 20
2.540551E+002
 11
8.5931769E+001
 21
2.540551E+002
  0
LINE
  8
2D_VERDECKTE_KANTEN
  6
HIDDEN
 62
1
 10
8.5931769E+001
 20
2.565551E+002
 11
8.4931769E+001
 21
2.565551E+002
  0
LINE
  8
2D_VERDECKTE_KANTEN
  6
HIDDEN
 62
1
 10
8.3431769E+001
 20
2.310551E+002
 11
8.4931769E+001
 21
2.325551E+002
  0
LINE
  8
2D_VERDECKTE_KANTEN
  6
HIDDEN
 62
1
 10
8.4931769E+001
 20
2.325551E+002
 11
8.4931769E+001
 21
2.350551E+002
  0
LINE
  8
2D_VERDECKTE_KANTEN
  6
HIDDEN
 62
1
 10
8.4931769E+001
 20
2.350551E+002
 11
8.3431769E+001
 21
2.365551E+002
  0
LINE
  8
2D_VERDECKTE_KANTEN
  6
HIDDEN
 62
1
 10
8.4931769E+001
 20
2.325551E+002
 11
8.5931769E+001
 21
2.325551E+002
  0
LINE
  8
2D_VERDECKTE_KANTEN
  6
HIDDEN
 62
1
 10
8.5931769E+001
 20
2.350551E+002
 11
8.4931769E+001
 21
2.350551E+002
  0
LINE
  8
2D_VERDECKTE_KANTEN
  6
HIDDEN
 62
1
 10
8.3431769E+001
 20
2.390551E+002
 11
8.4931769E+001
 21
2.405551E+002
  0
LINE
  8
2D_VERDECKTE_KANTEN
  6
HIDDEN
 62
1
 10
8.4931769E+001
 20
2.405551E+002
 11
8.4931769E+001
 21
2.430551E+002
  0
LINE
  8
2D_VERDECKTE_KANTEN
  6
HIDDEN
 62
1
 10
8.4931769E+001
 20
2.430551E+002
 11
8.3431769E+001
 21
2.445551E+002
  0
LINE
  8
2D_VERDECKTE_KANTEN
  6
HIDDEN
 62
1
 10
8.4931769E+001
 20
2.405551E+002
 11
8.5931769E+001
 21
2.405551E+002
  0
LINE
  8
2D_VERDECKTE_KANTEN
  6
HIDDEN
 62
1
 10
8.5931769E+001
 20
2.430551E+002
 11
8.4931769E+001
 21
2.430551E+002
  0
LINE
  8
2D_SICHTBARE_KANTEN
  6
CONTINUOUS
 62
40
 10
8.5931769E+001
 20
2.5818011E+002
 11
8.5931769E+001
 21
2.281801E+002
  0
LINE
  8
2D_SICHTBARE_KANTEN
  6
CONTINUOUS
 62
40
 10
8.5931769E+001
 20
2.281801E+002
 11
6.0950202E+001
 21
2.281801E+002
  0
ARC
  8
2D_SICHTBARE_KANTEN
  6
CONTINUOUS
 62
40
 10
6.0950208E+001
 20
2.2968011E+002
 40
1.5000066
 50
1.8003697E+002
 51
2.6999976E+002
  0
LINE
  8
2D_SICHTBARE_KANTEN
  6
CONTINUOUS
 62
40
 10
5.9450202E+001
 20
2.2967914E+002
 11
5.9432746E+001
 21
2.5667914E+002
  0
ARC
  8
2D_SICHTBARE_KANTEN
  6
CONTINUOUS
 62
40
 10
6.0932749E+001
 20
2.5668011E+002
 40
1.5000038
 50
9.0000132E+001
 51
1.8003716E+002
  0
LINE
  8
2D_SICHTBARE_KANTEN
  6
CONTINUOUS
 62
40
 10
6.0932746E+001
 20
2.5818012E+002
 11
8.5931769E+001
 21
2.5818011E+002
  0
LINE
  8
2D_SICHTBARE_KANTEN
  6
CONTINUOUS
 62
40
 10
7.5694248E+001
 20
2.2155512E+002
 11
8.5181769E+001
 21
2.2155512E+002
  0
LINE
  8
2D_SICHTBARE_KANTEN
  6
CONTINUOUS
 62
40
 10
8.5181769E+001
 20
2.2155512E+002
 11
8.5181769E+001
 21
2.2405513E+002
  0
LINE
  8
2D_SICHTBARE_KANTEN
  6
CONTINUOUS
 62
40
 10
8.5181769E+001
 20
2.2405513E+002
 11
7.565466E+001
 21
2.2405513E+002
  0
LINE
  8
2D_BEMASSUNG
  6
CENTERLINE
 62
150
 10
8.5931768E+001
 20
2.135551E+002
 11
8.5931768E+001
 21
2.160551E+002
  0
LINE
  8
2D_SICHTBARE_KANTEN
  6
CONTINUOUS
 62
40
 10
8.3931737E+001
 20
2.198051E+002
 11
8.3931737E+001
 21
2.2080513E+002
  0
LINE
  8
2D_SICHTBARE_KANTEN
  6
CONTINUOUS
 62
40
 10
8.3931737E+001
 20
2.2080513E+002
 11
7.5431737E+001
 21
2.2080513E+002
  0
LINE
  8
2D_SICHTBARE_KANTEN
  6
CONTINUOUS
 62
40
 10
7.5431737E+001
 20
2.2080513E+002
 11
7.5431737E+001
 21
2.198051E+002
  0
LINE
  8
2D_SICHTBARE_KANTEN
  6
CONTINUOUS
 62
40
 10
7.7194249E+001
 20
2.2108009E+002
 11
7.7194249E+001
 21
2.2080513E+002
  0
LINE
  8
2D_SICHTBARE_KANTEN
  6
CONTINUOUS
 62
40
 10
7.7194249E+001
 20
2.2080513E+002
 11
7.7194249E+001
 21
2.2155512E+002
  0
LINE
  8
2D_SICHTBARE_KANTEN
  6
CONTINUOUS
 62
40
 10
8.2169285E+001
 20
2.2108009E+002
 11
8.2169285E+001
 21
2.2080513E+002
  0
LINE
  8
2D_SICHTBARE_KANTEN
  6
CONTINUOUS
 62
40
 10
8.2169285E+001
 20
2.2080513E+002
 11
8.2169261E+001
 21
2.2155512E+002
  0
CIRCLE
  8
3D_SICHTBARE_KANTEN
  6
CONTINUOUS
 62
40
 10
6.9431769E+001
 20
2.4742914E+002
 40
7.5E-001
  0
CIRCLE
  8
3D_SICHTBARE_KANTEN
  6
CONTINUOUS
 62
40
 10
8.2181769E+001
 20
2.3467914E+002
 40
7.5E-001
  0
CIRCLE
  8
3D_SICHTBARE_KANTEN
  6
CONTINUOUS
 62
40
 10
7.7931769E+001
 20
2.3467914E+002
 40
7.5E-001
  0
CIRCLE
  8
3D_SICHTBARE_KANTEN
  6
CONTINUOUS
 62
40
 10
7.3681769E+001
 20
2.3467914E+002
 40
7.5E-001
  0
CIRCLE
  8
3D_SICHTBARE_KANTEN
  6
CONTINUOUS
 62
40
 10
6.9431769E+001
 20
2.3467914E+002
 40
7.5E-001
  0
CIRCLE
  8
3D_SICHTBARE_KANTEN
  6
CONTINUOUS
 62
40
 10
6.5181769E+001
 20
2.3467914E+002
 40
7.5E-001
  0
CIRCLE
  8
3D_SICHTBARE_KANTEN
  6
CONTINUOUS
 62
40
 10
8.2181769E+001
 20
2.3892914E+002
 40
7.5E-001
  0
CIRCLE
  8
3D_SICHTBARE_KANTEN
  6
CONTINUOUS
 62
40
 10
7.7931769E+001
 20
2.3892914E+002
 40
7.5E-001
  0
CIRCLE
  8
3D_SICHTBARE_KANTEN
  6
CONTINUOUS
 62
40
 10
7.3681769E+001
 20
2.3892914E+002
 40
7.5E-001
  0
CIRCLE
  8
3D_SICHTBARE_KANTEN
  6
CONTINUOUS
 62
40
 10
6.9431769E+001
 20
2.3892914E+002
 40
7.5E-001
  0
CIRCLE
  8
3D_SICHTBARE_KANTEN
  6
CONTINUOUS
 62
40
 10
6.5181769E+001
 20
2.3892914E+002
 40
7.5E-001
  0
CIRCLE
  8
3D_SICHTBARE_KANTEN
  6
CONTINUOUS
 62
40
 10
8.2181769E+001
 20
2.4317914E+002
 40
7.5E-001
  0
CIRCLE
  8
3D_SICHTBARE_KANTEN
  6
CONTINUOUS
 62
40
 10
7.7931769E+001
 20
2.4317914E+002
 40
7.5E-001
  0
CIRCLE
  8
3D_SICHTBARE_KANTEN
  6
CONTINUOUS
 62
40
 10
7.3681769E+001
 20
2.4317914E+002
 40
7.5E-001
  0
CIRCLE
  8
3D_SICHTBARE_KANTEN
  6
CONTINUOUS
 62
40
 10
6.9431769E+001
 20
2.4317914E+002
 40
7.5E-001
  0
CIRCLE
  8
3D_SICHTBARE_KANTEN
  6
CONTINUOUS
 62
40
 10
6.5181769E+001
 20
2.4317914E+002
 40
7.5E-001
  0
CIRCLE
  8
3D_SICHTBARE_KANTEN
  6
CONTINUOUS
 62
40
 10
8.2181769E+001
 20
2.4742914E+002
 40
7.5E-001
  0
CIRCLE
  8
3D_SICHTBARE_KANTEN
  6
CONTINUOUS
 62
40
 10
7.7931769E+001
 20
2.4742914E+002
 40
7.5E-001
  0
CIRCLE
  8
3D_SICHTBARE_KANTEN
  6
CONTINUOUS
 62
40
 10
7.3681769E+001
 20
2.4742914E+002
 40
7.5E-001
  0
CIRCLE
  8
3D_SICHTBARE_KANTEN
  6
CONTINUOUS
 62
40
 10
6.5181769E+001
 20
2.4742914E+002
 40
7.5E-001
  0
CIRCLE
  8
3D_SICHTBARE_KANTEN
  6
CONTINUOUS
 62
40
 10
8.2181769E+001
 20
2.5167914E+002
 40
7.5E-001
  0
CIRCLE
  8
3D_SICHTBARE_KANTEN
  6
CONTINUOUS
 62
40
 10
7.7931769E+001
 20
2.5167914E+002
 40
7.5E-001
  0
CIRCLE
  8
3D_SICHTBARE_KANTEN
  6
CONTINUOUS
 62
40
 10
7.3681769E+001
 20
2.5167914E+002
 40
7.5E-001
  0
CIRCLE
  8
3D_SICHTBARE_KANTEN
  6
CONTINUOUS
 62
40
 10
6.9431769E+001
 20
2.5167914E+002
 40
7.5E-001
  0
CIRCLE
  8
3D_SICHTBARE_KANTEN
  6
CONTINUOUS
 62
40
 10
6.5181769E+001
 20
2.5167914E+002
 40
7.5E-001
  0
LINE
  8
3D_SICHTBARE_KANTEN
  6
CONTINUOUS
 62
40
 10
7.4096347E+001
 20
2.5230414E+002
 11
7.4074566E+001
 21
2.5230414E+002
  0
ARC
  8
3D_SICHTBARE_KANTEN
  6
CONTINUOUS
 62
40
 10
7.1431769E+001
 20
2.4317914E+002
 40
9.5
 50
7.3847843E+001
 51
7.3858732E+001
  0
TEXT
  8
2D_TEXT
  6
CONTINUOUS
 62
150
 10
3.5728892E+002
 20
2.2357351E+001
 40
3.5
  1
Maßstab:
 41
6.4687502E-001
 72
1
 11
3.4823267E+002
 21
2.0607351E+001
 73
2
  0
LINE
  8
MED-1
  6
CONTINUOUS
 62
3
 10
2.87323E+002
 20
3.58984E+001
 11
2.87323E+002
 21
5.3705E+001
  0
LINE
  8
MED-1
  6
CONTINUOUS
 62
3
 10
2.87323E+002
 20
5.3705E+001
 11
4.0068E+002
 21
5.3705E+001
  0
LINE
  8
MED-1
  6
CONTINUOUS
 62
3
 10
4.0068E+002
 20
5.3705E+001
 11
4.0068E+002
 21
3.58984E+001
  0
TEXT
  8
2D_TEXT
  6
CONTINUOUS
 62
150
 10
3.1034373E+002
 20
4.1512573E+001
 40
3.5
  1
Benennung
 41
6.5000002E-001
 72
1
 11
3.0010623E+002
 21
3.9762573E+001
 73
2
  0
TEXT
  8
2D_TEXT
  6
CONTINUOUS
 62
150
 10
3.5435168E+002
 20
3.1956501E+001
 40
3.5
  1
Zng.Nr.
 41
6.4285716E-001
 72
1
 11
3.4647668E+002
 21
3.0206501E+001
 73
2
  0
TEXT
  8
2D_TEXT
  6
CONTINUOUS
 62
150
 10
2.9879783E+002
 20
3.2113159E+001
 40
3.5
  1
gez.
 41
6.1875002E-001
 72
1
 11
2.9446658E+002
 21
3.0363159E+001
 73
2
  0
TEXT
  8
2D_TEXT
  6
CONTINUOUS
 62
150
 10
3.0029241E+002
 20
2.2713747E+001
 40
3.5
  1
Datum
 41
6.3000002E-001
 72
1
 11
2.9477991E+002
 21
2.0963747E+001
 73
2
  0
LINE
  8
MED-1
  6
CONTINUOUS
 62
3
 10
3.7698E+002
 20
2.58984E+001
 11
3.7698E+002
 21
1.58984E+001
  0
LINE
  8
MED-1
  6
CONTINUOUS
 62
3
 10
2.87323E+002
 20
3.58984E+001
 11
4.0068E+002
 21
3.58984E+001
  0
LINE
  8
MED-1
  6
CONTINUOUS
 62
3
 10
4.0068E+002
 20
3.58984E+001
 11
4.0068E+002
 21
1.58984E+001
  0
LINE
  8
MED-1
  6
CONTINUOUS
 62
3
 10
4.0068E+002
 20
1.58984E+001
 11
2.87323E+002
 21
1.58984E+001
  0
LINE
  8
MED-1
  6
CONTINUOUS
 62
3
 10
2.87323E+002
 20
1.58984E+001
 11
2.87323E+002
 21
3.58984E+001
  0
LINE
  8
MED-1
  6
CONTINUOUS
 62
3
 10
3.37133E+002
 20
3.58984E+001
 11
3.37133E+002
 21
1.58984E+001
  0
LINE
  8
MED-1
  6
CONTINUOUS
 62
3
 10
2.87323E+002
 20
2.58984E+001
 11
4.0068E+002
 21
2.58984E+001
  0
INSERT
  2
*TX109
  8
2D_TEXT
 10
3.199202E+002
 20
2.8191277E+001
 41
5.0E-001
 43
5.0E-001
 42
5.0E-001
  0
LINE
  8
2D_SICHTBARE_KANTEN
  6
CONTINUOUS
 62
40
 10
8.7431769E+001
 20
2.198051E+002
 11
8.7431769E+001
 21
1.123051E+002
  0
LINE
  8
2D_SICHTBARE_KANTEN
  6
CONTINUOUS
 62
40
 10
1.1243177E+002
 20
2.198051E+002
 11
1.1243177E+002
 21
1.123051E+002
  0
LINE
  8
2D_SICHTBARE_KANTEN
  6
CONTINUOUS
 62
40
 10
8.7431769E+001
 20
2.198051E+002
 11
1.1243177E+002
 21
2.198051E+002
  0
LINE
  8
2D_SICHTBARE_KANTEN
  6
CONTINUOUS
 62
40
 10
8.5931769E+001
 20
2.218051E+002
 11
1.1243177E+002
 21
2.218051E+002
  0
LINE
  8
2D_SICHTBARE_KANTEN
  6
CONTINUOUS
 62
40
 10
8.5931769E+001
 20
2.718051E+002
 11
8.5931769E+001
 21
2.218051E+002
  0
LINE
  8
2D_SICHTBARE_KANTEN
  6
CONTINUOUS
 62
40
 10
1.1993177E+002
 20
2.718051E+002
 11
1.1993177E+002
 21
2.143051E+002
  0
LINE
  8
2D_SICHTBARE_KANTEN
  6
CONTINUOUS
 62
40
 10
1.1243177E+002
 20
2.143051E+002
 11
1.1993177E+002
 21
2.143051E+002
  0
LINE
  8
2D_SICHTBARE_KANTEN
  6
CONTINUOUS
 62
40
 10
1.1243177E+002
 20
2.218051E+002
 11
1.1243177E+002
 21
2.198051E+002
  0
LINE
  8
2D_MITTELLINIEN
  6
CENTERLINE
 62
1
 10
7.9260576E+001
 20
1.123051E+002
 11
1.2093366E+002
 21
1.123051E+002
  0
LINE
  8
99
  6
CONTINUOUS
 62
1
 10
8.5931769E+001
 20
2.330551E+002
 11
9.1431769E+001
 21
2.330551E+002
  0
LINE
  8
99
  6
CONTINUOUS
 62
1
 10
9.1431769E+001
 20
2.345551E+002
 11
8.5931769E+001
 21
2.345551E+002
  0
LINE
  8
2D_SICHTBARE_KANTEN
  6
CONTINUOUS
 62
40
 10
8.5931769E+001
 20
2.325551E+002
 11
9.1431769E+001
 21
2.325551E+002
  0
LINE
  8
2D_SICHTBARE_KANTEN
  6
CONTINUOUS
 62
40
 10
9.1431769E+001
 20
2.325551E+002
 11
9.1431769E+001
 21
2.350551E+002
  0
LINE
  8
2D_SICHTBARE_KANTEN
  6
CONTINUOUS
 62
40
 10
9.1431769E+001
 20
2.350551E+002
 11
8.5931769E+001
 21
2.350551E+002
  0
LINE
  8
2D_MITTELLINIEN
  6
CENTERLINE
 62
1
 10
8.2092902E+001
 20
2.338051E+002
 11
9.2322692E+001
 21
2.338051E+002
  0
LINE
  8
99
  6
CONTINUOUS
 62
1
 10
8.5931768E+001
 20
2.5455511E+002
 11
9.1431768E+001
 21
2.5455511E+002
  0
LINE
  8
99
  6
CONTINUOUS
 62
1
 10
9.1431768E+001
 20
2.5605511E+002
 11
8.5931768E+001
 21
2.5605511E+002
  0
LINE
  8
2D_SICHTBARE_KANTEN
  6
CONTINUOUS
 62
40
 10
8.5931768E+001
 20
2.5405511E+002
 11
9.1431768E+001
 21
2.5405511E+002
  0
LINE
  8
2D_SICHTBARE_KANTEN
  6
CONTINUOUS
 62
40
 10
9.1431768E+001
 20
2.5405511E+002
 11
9.1431768E+001
 21
2.5655511E+002
  0
LINE
  8
2D_SICHTBARE_KANTEN
  6
CONTINUOUS
 62
40
 10
9.1431768E+001
 20
2.5655511E+002
 11
8.5931768E+001
 21
2.5655511E+002
  0
LINE
  8
2D_MITTELLINIEN
  6
CENTERLINE
 62
1
 10
8.2092901E+001
 20
2.5530511E+002
 11
9.2322691E+001
 21
2.5530511E+002
  0
INSERT
  2
UU
  8
2D_SYMBOLE
 10
8.1950865
 20
9.014595
 50
2.7E+002
  0
LINE
  8
2D_MITTELLINIEN
  6
CENTERLINE
 62
1
 10
8.2161261E+001
 20
2.338051E+002
 11
8.7407172E+001
 21
2.338051E+002
  0
LINE
  8
2D_MITTELLINIEN
  6
CENTERLINE
 62
1
 10
8.2092902E+001
 20
2.553051E+002
 11
8.7292121E+001
 21
2.5530511E+002
  0
INSERT
  2
44
  8
2D_SYMBOLE
 10
8.3681769E+001
 20
1.598051E+002
 41
5.0E-001
 43
5.0E-001
 42
5.0E-001
  0
POINT
  8
Drafting_Hidden_Entities
  6
CONTINUOUS
 62
1
 10
2.5602099E+002
 20
2.193051E+002
  0
LINE
  8
99
  6
CONTINUOUS
 62
1
 10
8.5931768E+001
 20
2.5455511E+002
 11
9.1431768E+001
 21
2.5455511E+002
  0
LINE
  8
99
  6
CONTINUOUS
 62
1
 10
9.1431768E+001
 20
2.5605511E+002
 11
8.5931768E+001
 21
2.5605511E+002
  0
LINE
  8
2D_SICHTBARE_KANTEN
  6
CONTINUOUS
 62
40
 10
8.5931768E+001
 20
2.5405511E+002
 11
9.1431768E+001
 21
2.5405511E+002
  0
LINE
  8
2D_SICHTBARE_KANTEN
  6
CONTINUOUS
 62
40
 10
9.1431768E+001
 20
2.5405511E+002
 11
9.1431768E+001
 21
2.5655511E+002
  0
LINE
  8
2D_SICHTBARE_KANTEN
  6
CONTINUOUS
 62
40
 10
9.1431768E+001
 20
2.5655511E+002
 11
8.5931768E+001
 21
2.5655511E+002
  0
LINE
  8
2D_MITTELLINIEN
  6
CENTERLINE
 62
1
 10
8.2092901E+001
 20
2.5530511E+002
 11
9.2322691E+001
 21
2.5530511E+002
  0
LINE
  8
2D_SICHTBARE_KANTEN
  6
CONTINUOUS
 62
40
 10
8.5931769E+001
 20
2.718051E+002
 11
1.1993177E+002
 21
2.718051E+002
  0
DIMENSION
  8
2D_BEMASSUNG
  6
CONTINUOUS
 62
1
  1
max.<>
  2
*D1728
  3
DSTYLE2
 10
8.7431769E+001
 20
1.936569E+002
 11
7.7089845E+001
 21
1.969079E+002
 70
128
 13
8.5931769E+001
 23
2.218051E+002
 14
8.7431769E+001
 24
2.198051E+002
 40
5.0
 50
0.0
1001
ACAD
1000
DSTYLE
1002
{
1070
173
1070
0
1070
5
1000
_AH13
1002
}
  0
DIMENSION
  8
2D_BEMASSUNG
  6
CONTINUOUS
 62
1
  2
*D1729
  3
DSTYLE2
 10
1.3846039E+002
 20
2.338051E+002
 11
1.3520939E+002
 21
2.2751914E+002
 70
128
 13
8.7431769E+001
 23
2.198051E+002
 14
9.2322692E+001
 24
2.338051E+002
 40
5.0
 50
9.0E+001
1001
ACAD
1000
DSTYLE
1002
{
1070
173
1070
0
1070
5
1000
_AH13
1002
}
  0
DIMENSION
  8
2D_BEMASSUNG
  6
CONTINUOUS
 62
1
  2
*D1730
  3
DSTYLE2
 10
1.3846039E+002
 20
2.5530511E+002
 11
1.3520939E+002
 21
2.4566304E+002
 70
128
 13
9.2322692E+001
 23
2.338051E+002
 14
9.2322691E+001
 24
2.5530511E+002
 40
5.0
 50
9.0E+001
1001
ACAD
1000
DSTYLE
1002
{
1070
173
1070
0
1070
5
1000
_AH13
1002
}
  0
DIMENSION
  8
2D_BEMASSUNG
  6
CONTINUOUS
 62
1
  2
*D1732
  3
DSTYLE2
 10
1.5312464E+002
 20
2.148051E+002
 11
1.4987364E+002
 21
2.3522408E+002
 70
128
 13
9.2322691E+001
 23
2.5530511E+002
 14
9.4423751E+001
 24
2.148051E+002
 40
5.0
 50
9.0E+001
1001
ACAD
1000
DSTYLE
1002
{
1070
173
1070
0
1070
5
1000
_AH13
1002
}
  0
TEXT
  8
2D_TEXT
  6
CONTINUOUS
 62
40
 10
2.9826549E+002
 20
4.6015713E+001
 40
5.0
  1
Türblattmontage Bandgegenseite
 41
6.6176471E-001
  0
INSERT
  2
P
  8
2D_SYMBOLE
 10
2.8852099E+002
 20
2.568051E+002
 41
5.0E-001
 43
5.0E-001
 42
5.0E-001
  0
ENDSEC
  0
EOF
